Панель пользователя
Регистрация

Воспользуйтесь социальными сетями для входа на https://freerutor.com

vk odnoklassniki facebook mailru yandex google
Популярное
Счетчик
Голосуй за нас
VIP на сайте
Популярное
Товары интернет магазина
загрузка...

Габбар вернулся / Gabbar is Back (2015) HDRip

Габбар вернулся / Gabbar is Back (2015) HDRip
Участники торрент обмена
Сидов Пиров Скачали
2 0 1208
Характеристика
Размер Файлы
1.46 GB
Поделиться раздачей
Фильмы (HDRip,WEB-DLRip)
Название: Габбар вернулся
Оригинальное название: Gabbar is Back
Жанр: Боевик, драма, криминал,
Выпущено: Индия / SLB Films Pvt. Ltd., Viacom18 Motion Pictures
Режиссер: Радха Кришна Джагарламуди
В ролях: Акшай Кумар, Шрути Хасан, Сунил Гроувер, Суман, Карина Капур, Ишита Вьяс, Шрути Бапна, Джайдип Ахлават, Радж Сингх, Арора, Правина Дешпанде, Нарендра Джейтли, Читрангада Сингх
Краткое описание: Габбар Сингх Раджпут создает свою собственную организацию по борьбе с коррупцией для ликвидации наиболее коррумпированных личностей из всех слоев общества. Вскоре на полицию и правительство начинают оказывать давление, чтобы те разыскали человека, стоящего во главе этой организации…
  • Видео: XviD, 1232 Кбит/с, 720x304
    Аудио: АС3, 6 ch, 384 Кбит/с
    Перевод: Любительский многоголосый [ICG]
    Продолжительность: 02:08:19
  • Габбар вернулся / Gabbar is Back (2015) HDRip Габбар вернулся / Gabbar is Back (2015) HDRip Габбар вернулся / Gabbar is Back (2015) HDRip
  • Format : AVI
    Format/Info : Audio Video Interleave
    File size : 1.46 GiB
    Duration : 2h 8mn
    Overall bit rate : 1 626 Kbps
    Movie name : Габбар вернулся / Габбар... Возвращается / Gabbar is Back (2015)
    Director : MECHANICAL ENGINEER (BDRip 1080)
    Genre : Боевик, драма, криминал
    Writing application : VirtualDubMod 1.5.10.3 | www.virtualdub-fr.org || (build 2550/release)
    Copyright : Индия
    Comment : 06.11.2015

    Video
    ID : 0
    Format : MPEG-4 Visual
    Format profile : Advanced Simple@L5
    Format settings, BVOP : 1
    Format settings, QPel : No
    Format settings, GMC : No warppoints
    Format settings, Matrix : Custom
    Codec ID : XVID
    Codec ID/Hint : XviD
    Duration : 2h 8mn
    Bit rate : 1 233 Kbps
    Width : 720 pixels
    Height : 304 pixels
    Display aspect ratio : 2.35:1
    Frame rate : 24.000 fps
    Color space : YUV
    Chroma subsampling : 4:2:0
    Bit depth : 8 bits
    Scan type : Progressive
    Compression mode : Lossy
    Bits/(Pixel*Frame) : 0.235
    Stream size : 1.11 GiB (76%)
    Writing library : XviD 65

    Audio
    ID : 1
    Format : AC-3
    Format/Info : Audio Coding 3
    Mode extension : CM (complete main)
    Format settings, Endianness : Big
    Codec ID : 2000
    Duration : 2h 8mn
    Bit rate mode : Constant
    Bit rate : 384 Kbps
    Channel(s) : 6 channels
    Channel positions : Front: L C R, Side: L R, LFE
    Sampling rate : 48.0 KHz
    Bit depth : 16 bits
    Compression mode : Lossy
    Stream size : 352 MiB (24%)
    Alignment : Split accross interleaves
    Interleave, duration : 42 ms (1.00 video frame)
    Interleave, preload duration : 500 ms
6.1 из 10
голосов: 7
/10
/10
grab777 7-11-2015, 15:35
Информация
Посетители, находящиеся в группе Гости, не могут оставлять комментарии к данной публикации.