Панель пользователя
Регистрация

Воспользуйтесь социальными сетями для входа на https://freerutor.com

vk odnoklassniki facebook mailru yandex google
Популярное
Счетчик
Голосуй за нас
VIP на сайте
Популярное
Товары интернет магазина
загрузка...

Воин (2015) WEB-DLRip-AVC | Лицензия

Воин (2015) WEB-DLRip-AVC | Лицензия
Участники торрент обмена
Сидов Пиров Скачали
6 0 2669
Характеристика
Размер Файлы
1.28 GB
Релиз группа
Поделиться раздачей
Фильмы (AVC)
Оригинальное название: Воин
Жанр: Драма, спорт
Выпущено: Россия / ВГТРК, Art Pictures Studio
Режиссер: Алексей Андрианов
В ролях: Фёдор Бондарчук, Сергей Бондарчук мл., Светлана Ходченкова, Владимир Яглыч, Юрий Яковлев-Суханов, Александр Новин, Александр Балуев, Мария Андреева, Владимир Селиванов, Екатерина Мельник
Краткое описание: Фильм рассказывает драматическую историю двух братьев, профессиональных спортсменов по боям ММА. Это картина о долге и жизненных ценностях, показанных сквозь призму жизни братьев и их отца — крепких и гордых людей, фильм о семье, об обидах, которые мы носим в себе десятилетиями, о боли, которую мы причиняем подчас бездумно, и о прощении, которому всегда должно найтись место в наших сердцах.
  • Видео: MPEG-4 AVC, 1722 Кбит/с, 1024x426
    Аудио: AC3, 6 ch, 384 Кбит/с
    Перевод: Не требуется
    Продолжительность: 01:27:06
  • Воин (2015) WEB-DLRip-AVC | Лицензия Воин (2015) WEB-DLRip-AVC | Лицензия Воин (2015) WEB-DLRip-AVC | Лицензия
  • General
    Unique ID : 210763750867914432990452021550079124732 (0x9E8F9F34C24F2DCEA3FB7CC18001A4FC)
    Complete name : C:\Boin.2015.O.WEB-DLRip.AVC.ExKInoRay.mkv
    Format : Matroska
    Format version : Version 4 / Version 2
    File size : 1.28 GiB
    Duration : 1h 27mn
    Overall bit rate : 2 106 Kbps
    Movie name : Воин 2015 from ExKinoRay
    Encoded date : UTC 2015-11-03 23:14:54
    Writing application : mkvmerge v6.6.0 ('The Edge Of The In Between') built on Dec 1 2013 17:55:00
    Writing library : libebml v1.3.0 + libmatroska v1.4.1

    Video
    ID : 1
    Format : AVC
    Format/Info : Advanced Video Codec
    Format profile : High@L4.1
    Format settings, CABAC : Yes
    Format settings, ReFrames : 10 frames
    Codec ID : V_MPEG4/ISO/AVC
    Duration : 1h 27mn
    Bit rate : 1 722 Kbps
    Width : 1 024 pixels
    Height : 426 pixels
    Display aspect ratio : 2.40:1
    Frame rate mode : Constant
    Frame rate : 25.000 fps
    Color space : YUV
    Chroma subsampling : 4:2:0
    Bit depth : 8 bits
    Scan type : Progressive
    Bits/(Pixel*Frame) : 0.158
    Stream size : 1.02 GiB (80%)
    Title : Enigma
    Writing library : x264 core 133 r2334 a3ac64b
    Encoding settings : cabac=1 / ref=10 / deblock=1:-2:-2 / analyse=0x3:0x113 / me=umh / subme=10 / psy=1 / psy_rd=1.05:0.15 / mixed_ref=1 / me_range=32 / chroma_me=1 / trellis=2 / 8x8dct=1 / cqm=0 / deadzone=21,11 / fast_pskip=0 / chroma_qp_offset=-3 / threads=12 / lookahead_threads=2 / sliced_threads=0 / nr=0 / decimate=0 / interlaced=0 / bluray_compat=0 / constrained_intra=0 / bframes=8 / b_pyramid=2 / b_adapt=2 / b_bias=0 / direct=3 / weightb=1 / open_gop=0 / weightp=2 / keyint=250 / keyint_min=25 / scenecut=40 / intra_refresh=0 / rc_lookahead=40 / rc=2pass / mbtree=0 / bitrate=1722 / ratetol=1.0 / qcomp=0.60 / qpmin=0 / qpmax=51 / qpstep=4 / cplxblur=20.0 / qblur=0.5 / vbv_maxrate=50000 / vbv_bufsize=62500 / nal_hrd=none / ip_ratio=1.40 / pb_ratio=1.30 / aq=1:1.00
    Language : English
    Default : Yes
    Forced : No
    Color primaries : BT.709
    Transfer characteristics : BT.709
    Matrix coefficients : BT.709

    Audio
    ID : 2
    Format : AC-3
    Format/Info : Audio Coding 3
    Mode extension : CM (complete main)
    Format settings, Endianness : Big
    Codec ID : A_AC3
    Duration : 1h 27mn
    Bit rate mode : Constant
    Bit rate : 384 Kbps
    Channel(s) : 6 channels
    Channel positions : Front: L C R, Side: L R, LFE
    Sampling rate : 48.0 KHz
    Bit depth : 16 bits
    Compression mode : Lossy
    Stream size : 239 MiB (18%)
    Title : iTunes
    Language : Russian
    Default : Yes
    Forced : No
6.9 из 10
голосов: 11
/10
/10
grab777 4-11-2015, 03:01

Vereshagin1972 | 4-11-2015, 15:03 | Статус: Оффлайн

Отличный фильмец, только короткий!

kinomen | 4-11-2015, 07:44 | Статус: Оффлайн

переснимают ерунду, даёшь русскую версию хобита и матрицы!!!
Информация
Посетители, находящиеся в группе Гости, не могут оставлять комментарии к данной публикации.