Панель пользователя
Регистрация

Воспользуйтесь социальными сетями для входа на https://freerutor.com

vk odnoklassniki facebook mailru yandex google
Популярное
Счетчик
Голосуй за нас
VIP на сайте
Популярное
Товары интернет магазина
загрузка...

Нянька / Der Nanny (2015) BDRip 720p

Нянька / Der Nanny (2015) BDRip 720p
Участники торрент обмена
Сидов Пиров Скачали
0 0 3041
Характеристика
Размер Файлы
4.57 GB
Поделиться раздачей
Фильмы (720,1080,Blu-Ray)
Название: Нянька
Оригинальное название: Der Nanny
Жанр: Комедия
Выпущено: Германия / Erfttal Film, ARRI Productions, Pantaleon Films
Режиссер: Маттиас Швайгхефер, Торстен Кюнстлер
В ролях: Маттиас Швайгхефер, Милан Пешель, Паула Хартманн, Арвед Фризе, Йоко Винтершайдт, Саша Александер, Илька Бессин, Кирстен Блок
Краткое описание: У молодого предпринимателя Клеменса Клина нет времени на своих детей и он, по случайности, нанимает нянькой человека, который пришел к нему, чтобы отомстить…
  • Видео: MPEG-4 AVC, 4160 Кбит/с, 1280x544
    Аудио: Русский (AC3, 2 ch, 256 Кбит/с), немецкий (DTS, 6 ch, 1510 Кбит/с)
    Перевод: Любительский одноголосый [В. Береговых]
    Продолжительность: 01:50:19
  • Нянька / Der Nanny (2015) BDRip 720p Нянька / Der Nanny (2015) BDRip 720p Нянька / Der Nanny (2015) BDRip 720p
  • General
    Unique ID : 252034835821662434667034272051920120865 (0xBD9C24CBBC707EABA0D241BD93382C21)
    Complete name : D:\HyaHka.L1.BDRip720p.mkv
    Format : Matroska
    Format version : Version 4 / Version 2
    File size : 4.57 GiB
    Duration : 1h 50mn
    Overall bit rate : 5 926 Kbps
    Encoded date : UTC 2015-11-01 10:16:31
    Writing application : mkvmerge v6.1.0 ('Old Devil') built on Mar 4 2013 09:10:42
    Writing library : libebml v1.3.0 + libmatroska v1.4.0

    Video
    ID : 1
    Format : AVC
    Format/Info : Advanced Video Codec
    Format profile : High@L4.1
    Format settings, CABAC : Yes
    Format settings, ReFrames : 5 frames
    Codec ID : V_MPEG4/ISO/AVC
    Duration : 1h 50mn
    Bit rate : 4 160 Kbps
    Width : 1 280 pixels
    Height : 544 pixels
    Display aspect ratio : 2.35:1
    Frame rate mode : Constant
    Frame rate : 23.976 fps
    Color space : YUV
    Chroma subsampling : 4:2:0
    Bit depth : 8 bits
    Scan type : Progressive
    Bits/(Pixel*Frame) : 0.249
    Stream size : 3.12 GiB (68%)
    Writing library : x264 core 148 r2597 e86f3a1
    Encoding settings : cabac=1 / ref=5 / deblock=1:-1:-1 / analyse=0x3:0x133 / me=umh / subme=7 / psy=1 / psy_rd=1.00:0.15 / mixed_ref=1 / me_range=16 / chroma_me=1 / trellis=1 / 8x8dct=1 / cqm=0 / deadzone=21,11 / fast_pskip=0 / chroma_qp_offset=-3 / threads=17 / lookahead_threads=2 / sliced_threads=0 / nr=0 / decimate=1 / interlaced=0 / bluray_compat=0 / constrained_intra=0 / bframes=3 / b_pyramid=2 / b_adapt=1 / b_bias=0 / direct=3 / weightb=1 / open_gop=0 / weightp=2 / keyint=240 / keyint_min=23 / scenecut=40 / intra_refresh=0 / rc_lookahead=50 / rc=2pass / mbtree=1 / bitrate=4160 / ratetol=1.0 / qcomp=0.60 / qpmin=10 / qpmax=51 / qpstep=4 / cplxblur=20.0 / qblur=0.5 / ip_ratio=1.40 / aq=1:1.00
    Language : English
    Default : Yes
    Forced : No

    Audio #1
    ID : 2
    Format : AC-3
    Format/Info : Audio Coding 3
    Mode extension : CM (complete main)
    Format settings, Endianness : Big
    Codec ID : A_AC3
    Duration : 1h 50mn
    Bit rate mode : Constant
    Bit rate : 256 Kbps
    Channel(s) : 2 channels
    Channel positions : Front: L R
    Sampling rate : 48.0 KHz
    Compression mode : Lossy
    Stream size : 202 MiB (4%)
    Language : Russian
    Default : Yes
    Forced : No

    Audio #2
    ID : 3
    Format : DTS
    Format/Info : Digital Theater Systems
    Mode : 16
    Format settings, Endianness : Big
    Codec ID : A_DTS
    Duration : 1h 50mn
    Bit rate mode : Constant
    Bit rate : 1 509 Kbps
    Channel(s) : 6 channels
    Channel positions : Front: L C R, Side: L R, LFE
    Sampling rate : 48.0 KHz
    Bit depth : 24 bits
    Compression mode : Lossy
    Stream size : 1.16 GiB (25%)
    Language : German
    Default : No
    Forced : No

    Menu
    00:00:00.000 : en:00:00:00.000
    00:07:31.117 : en:00:07:31.117
    00:15:31.264 : en:00:15:31.264
    00:24:19.291 : en:00:24:19.291
    00:33:45.690 : en:00:33:45.690
    00:44:35.339 : en:00:44:35.339
    00:53:24.910 : en:00:53:24.910
    01:02:03.553 : en:01:02:03.553
    01:11:41.255 : en:01:11:41.255
    01:21:04.318 : en:01:21:04.318
    01:32:22.370 : en:01:32:22.370
    01:43:26.075 : en:01:43:26.075
10.0 из 10
голосов: 2
/10
/10
grab777 2-11-2015, 11:58
Информация
Посетители, находящиеся в группе Гости, не могут оставлять комментарии к данной публикации.