Панель пользователя
Регистрация

Воспользуйтесь социальными сетями для входа на https://freerutor.com

vk odnoklassniki facebook mailru yandex google
Популярное
Счетчик
Голосуй за нас
VIP на сайте
Популярное
Товары интернет магазина
загрузка...

Арестуйте меня / Arrêtez-moi (2013) BDRip 720p

Арестуйте меня / Arrêtez-moi (2013) BDRip 720p
Участники торрент обмена
Сидов Пиров Скачали
0 0 47
Характеристика
Размер Файлы
2.95 GB
Поделиться раздачей
Фильмы (720,1080,Blu-Ray)
Название: Арестуйте меня
Оригинальное название: Arrêtez-moi
Жанр: Триллер
Выпущено: Франция / Rezo Productions, Iris Productions, Iris Films
Режиссер: Жан-Поль Лильенфельд
В ролях: Софи Марсо, Миу-Миу, Янн Эбонж, Марк Барбе, Валери Бодсон, Артур Бюиссен, Вадим Гудсмитс, Клодин Пеллетье, Женни Клев, Роже Де Моэрлос
Краткое описание: Однажды вечером женщина приходит в полицейский участок, чтобы признаться в убийстве своего мужа, совершенном десять лет назад, мужа, который издевался над ней и регулярно избивал ее. Несмотря на то, что следствие тогда пришло к выводу, что смерть была либо случайной, либо наступила в результате самоубийства, вдова покойного заявляет, что это все — дело ее рук.
  • Видео: MPEG-4 AVC, 3800 Кбит/с, 1280x588
    Аудио: Русский (AC3, 6 ch, 448 Кбит/с)
    Перевод: Профессиональный многоголосый
    Продолжительность: 01:39:33
  • Арестуйте меня / Arrêtez-moi (2013) BDRip 720p Арестуйте меня / Arrêtez-moi (2013) BDRip 720p Арестуйте меня / Arrêtez-moi (2013) BDRip 720p
  • General
    Unique ID : 228739655676663842717772950259342307415 (0xAC15A7BD647F6E74A446E2DCC978F057)
    Complete name : E:КиноАрестуйте меня.(2013).BLU-RAY.720p.[-=DoMiNo=-].mkv
    Format : Matroska
    Format version : Version 4 / Version 2
    File size : 2.95 GiB
    Duration : 1h 39mn
    Overall bit rate : 4 248 Kbps
    Movie name : Арестуйте меня
    Writing application : XviD4PSP 7.0.177
    Writing library : Lavf56.25.101
    ORIGINAL_TITLE : Arrêtez-moi
    DATE : 2013
    GENRE : триллер
    ENCODING_INFO : MATROSKA,WEBM > MKV 720p / H264 > X264 VBR-2P 3800kbps Custom / DTS > AC3 CBR 448kbps
    SYNOPSIS : Однажды вечером женщина приходит в полицейский участок, чтобы признаться в убийстве своего мужа, совершенном десять лет назад, мужа, который издевался над ней и регулярно избивал ее. Несмотря на то, что следствие тогда пришло к выводу, что смерть была либо случайной, либо наступила в результате самоубийства, вдова покойного заявляет, что это все — дело ее рук.
    ITUNEXTC : ru-movie|16+|375|
    ACTORS : Софи Марсо, Миу-Миу, Янн Эбонж, Марк Барбе, Валери Бодсон, Артур Бюиссен, Вадим Гудсмитс, Клодин Пеллетье, Женни Клев, Роже Де Моэрлос, показать всех
    DIRECTOR : Жан-Поль Лильенфельд
    PRODUCER : Хесус Гонсалес-Эльвира, Жан-Мишель Рей, Николас Стейл
    WRITER : Жан Теле, Жан-Поль Лильенфельд
    COUNTRY : Франция
    IMDB_RATING : 5.30
    Language : und
    FILENAME : cover.png
    Attachements : cover.png

    Video
    ID : 1
    Format : AVC
    Format/Info : Advanced Video Codec
    Format profile : High@L4.1
    Format settings, CABAC : Yes
    Format settings, ReFrames : 9 frames
    Codec ID : V_MPEG4/ISO/AVC
    Duration : 1h 39mn
    Bit rate : 3 800 Kbps
    Width : 1 280 pixels
    Height : 588 pixels
    Display aspect ratio : 2.2:1
    Frame rate mode : Constant
    Frame rate : 24.000 fps
    Color space : YUV
    Chroma subsampling : 4:2:0
    Bit depth : 8 bits
    Scan type : Progressive
    Bits/(Pixel*Frame) : 0.210
    Stream size : 2.58 GiB (87%)
    Writing library : x264 core 148 r2597M e86f3a1
    Encoding settings : cabac=1 / ref=9 / deblock=1:-3:-3 / analyse=0x3:0x133 / me=umh / subme=11 / psy=1 / psy_rd=1.00:0.20 / mixed_ref=1 / me_range=32 / chroma_me=1 / trellis=2 / 8x8dct=1 / cqm=0 / deadzone=21,11 / fast_pskip=0 / chroma_qp_offset=-3 / threads=5 / lookahead_threads=1 / sliced_threads=0 / nr=0 / decimate=1 / interlaced=0 / bluray_compat=0 / constrained_intra=0 / bframes=12 / b_pyramid=2 / b_adapt=2 / b_bias=0 / direct=3 / weightb=1 / open_gop=0 / weightp=2 / keyint=240 / keyint_min=24 / scenecut=40 / intra_refresh=0 / rc=2pass / mbtree=0 / bitrate=3800 / ratetol=1.0 / qcomp=0.60 / qpmin=0 / qpmax=69 / qpstep=4 / cplxblur=20.0 / qblur=0.5 / ip_ratio=1.40 / pb_ratio=1.30 / aq=1:1.00
    Language : English
    Default : Yes
    Forced : No
    Color range : Limited
    Color primaries : BT.709
    Transfer characteristics : BT.709
    Matrix coefficients : BT.709

    Audio
    ID : 2
    Format : AC-3
    Format/Info : Audio Coding 3
    Mode extension : CM (complete main)
    Format settings, Endianness : Big
    Codec ID : A_AC3
    Duration : 1h 39mn
    Bit rate mode : Constant
    Bit rate : 448 Kbps
    Channel(s) : 6 channels
    Channel positions : Front: L C R, Side: L R, LFE
    Sampling rate : 48.0 KHz
    Bit depth : 32 bits
    Compression mode : Lossy
    Delay relative to video : 27ms
    Stream size : 319 MiB (11%)
    Title : RUS_P.m
    Language : Russian
    Default : Yes
    Forced : No

    Menu
    00:00:00.000 : :Chapter 00
    00:00:14.125 : :Chapter 01
    00:08:32.791 : :Chapter 02
    00:17:09.791 : :Chapter 03
    00:24:35.250 : :Chapter 04
    00:33:21.250 : :Chapter 05
    00:42:25.666 : :Chapter 06
    00:49:24.791 : :Chapter 07
    00:59:50.916 : :Chapter 08
    01:10:13.833 : :Chapter 09
    01:21:20.375 : :Chapter 10
    01:28:59.041 : :Chapter 11
    01:36:00.791 : :Chapter 12
10.0 из 10
голосов: 1
/10
/10
grab777 1-11-2015, 12:12
Информация
Посетители, находящиеся в группе Гости, не могут оставлять комментарии к данной публикации.