Панель пользователя
Регистрация

Воспользуйтесь социальными сетями для входа на https://freerutor.com

vk odnoklassniki facebook mailru yandex google
Популярное
Счетчик
Голосуй за нас
VIP на сайте
Популярное
Товары интернет магазина
загрузка...

Незнакомец / The Stranger (2014) WEB-DLRip-AVC

Незнакомец / The Stranger (2014) WEB-DLRip-AVC
Участники торрент обмена
Сидов Пиров Скачали
0 0 137
Характеристика
Размер Файлы
1.45 GB
Релиз группа
Поделиться раздачей
Фильмы (AVC)
Название: Незнакомец
Оригинальное название: The Stranger
Жанр: Ужасы, триллер, драма, детектив
Выпущено: Чили / Sobras International Pictures
Режиссер: Гильермо Амоедо
В ролях: Лоренца Иззо, Аарон Барнс, Кристобаль Тапия Монтт, Ариэль Леви, Луис Гнекко, Николас Дюран, Алессанда Гуэрдзони, Джон Аллан, Пабло Вилья
Краткое описание: Таинственный человек приезжает в маленький городок, чтобы искоренить очень опасную болезнь…
  • Видео: MPEG-4 AVC, 1860 Кбит/с, 1024x426
    Аудио: Русский (АС3, 6 ch, 384 Кбит/с)
    Перевод: Любительский одноголосый (datynet)
    СубтитрЫ: Английский
    Продолжительность: 01:32:44
  • Незнакомец / The Stranger (2014) WEB-DLRip-AVC Незнакомец / The Stranger (2014) WEB-DLRip-AVC Незнакомец / The Stranger (2014) WEB-DLRip-AVC
  • Формат : Matroska
    Версия формата : Version 2
    Размер файла : 1,45 Гбайт
    Продолжительность : 1 ч. 32 м.
    Общий поток : 2246 Кбит/сек
    Дата кодирования : UTC 2015-10-31 17:34:01
    Программа кодирования : mkvmerge v5.3.0 ('I could have danced') built on Feb 9 2012 10:38:07
    Библиотека кодирования : libebml v1.2.3 + libmatroska v1.3.0
    Attachment : Yes

    Видео
    Идентификатор : 1
    Формат : AVC
    Формат/Информация : Advanced Video Codec
    Профиль формата : High@L4.1
    Параметр CABAC формата : Да
    Параметр ReFrames формата : 8 кадров
    Идентификатор кодека : V_MPEG4/ISO/AVC
    Продолжительность : 1 ч. 32 м.
    Битрейт : 1860 Кбит/сек
    Ширина : 1024 пикселя
    Высота : 426 пикселей
    Соотношение сторон : 2,40:1
    Режим частоты кадров : Постоянный
    Частота кадров : 23,976 кадра/сек
    Цветовое пространство : YUV
    Субдискретизация насыщенности : 4:2:0
    Битовая глубина : 8 бит
    Тип развёртки : Прогрессивная
    Бит/(Пиксели*Кадры) : 0.178
    Размер потока : 1,18 Гбайт (81%)
    Библиотека кодирования : x264 core 146 r2538 121396c
    Настройки программы : cabac=1 / ref=8 / deblock=1:-3:-3 / analyse=0x3:0x133 / me=umh / subme=10 / psy=1 / psy_rd=1.00:0.00 / mixed_ref=1 / me_range=32 / chroma_me=1 / trellis=2 / 8x8dct=1 / cqm=0 / deadzone=21,11 / fast_pskip=0 / chroma_qp_offset=-2 / threads=12 / lookahead_threads=1 / sliced_threads=0 / nr=0 / decimate=0 / interlaced=0 / bluray_compat=0 / constrained_intra=0 / bframes=6 / b_pyramid=2 / b_adapt=2 / b_bias=0 / direct=3 / weightb=1 / open_gop=0 / weightp=2 / keyint=240 / keyint_min=23 / scenecut=40 / intra_refresh=0 / rc=2pass / mbtree=0 / bitrate=1860 / ratetol=1.0 / qcomp=0.60 / qpmin=0 / qpmax=69 / qpstep=4 / cplxblur=20.0 / qblur=0.5 / ip_ratio=1.40 / pb_ratio=1.30 / aq=1:0.90
    Язык : English
    Default : Да
    Forced : Нет

    Аудио
    Идентификатор : 2
    Формат : AC-3
    Формат/Информация : Audio Coding 3
    Расширение режима : CM (complete main)
    Параметр Endianness формата : Big
    Идентификатор кодека : A_AC3
    Продолжительность : 1 ч. 32 м.
    Вид битрейта : Постоянный
    Битрейт : 384 Кбит/сек
    Каналы : 6 каналов
    Расположение каналов : Front: L C R, Side: L R, LFE
    Частота : 48,0 КГц
    Битовая глубина : 16 бит
    Метод сжатия : С потерями
    Размер потока : 255 Мбайт (17%)
    Язык : Russian
    Default : Да
    Forced : Нет

    Текст
    Идентификатор : 3
    Формат : UTF-8
    Идентификатор кодека : S_TEXT/UTF8
    Идентификатор кодека/Информация : UTF-8 Plain Text
    Язык : English
    Default : Нет
    Forced : Нет

    Меню
    00:00:00.000 : en:1
    00:01:32.000 : en:2
    00:13:11.000 : en:3
    00:20:48.000 : en:4
    00:28:15.000 : en:5
    00:41:26.000 : en:6
    00:53:54.000 : en:7
    01:05:09.000 : en:8
    01:15:23.000 : en:9
    01:28:39.000 : en:10
5.5 из 10
голосов: 2
/10
/10
grab777 1-11-2015, 09:10
Информация
Посетители, находящиеся в группе Гости, не могут оставлять комментарии к данной публикации.