Панель пользователя
Регистрация

Воспользуйтесь социальными сетями для входа на https://freerutor.com

vk odnoklassniki facebook mailru yandex google
Популярное
Счетчик
Голосуй за нас
VIP на сайте
Популярное
Товары интернет магазина
загрузка...

Цена любви (1-2 серии из 2) (2015) HDTVRip

Цена любви (1-2 серии из 2) (2015) HDTVRip
Участники торрент обмена
Сидов Пиров Скачали
1 0 999
Характеристика
Размер Файлы
2.73 GB
Релиз группа
Поделиться раздачей
Русские сериалы
Оригинальное название: Цена любви
Жанр: Мелодрама
Выпущено: Россия / Русское
Режиссер: Александр Хван
В ролях: Анна Невская, Юрий Батурин, Анастасия Матвеева, Ольга Чудакова, Натали Старынкевич, Павел Крайнов, Александр Никитин, Анастасия Бусыгина, Татьяна Чернопятова, Татьяна Васильева
Краткое описание: Преподаватель университета Елена однажды пришла к выводу, что в ее жизни больше нет простого женского счастья. Она замужем, раньше между ней и супругом была страсть и любовь, но, увы, быт беспощадно съел их. От развода Елену останавливает только дочь Катя. Но однажды в университете появляется Андрей. Молодой 20-летний парень вскружил голову Елене. Она не думает о разнице в возрасте, позабыв об обязательствах и репутации…
  • Видео: XviD, 1920 Кбит/с, 720х400
    Аудио: AC3, 2 ch, 192 Кбит/с
    Перевод: Не требуется
    Продолжительность: 2 x ~ 01:30:00
  • Цена любви (1-2 серии из 2) (2015) HDTVRip Цена любви (1-2 серии из 2) (2015) HDTVRip Цена любви (1-2 серии из 2) (2015) HDTVRip
  • General
    Complete name : Y:раздачиChena love.2015.HDTVRip.RG.Russkie.serialy.&.Files-x1.Chena love.2015.HDTVRip.RG.Russkie.serialy.&.Files-x.avi
    Format : AVI
    Format/Info : Audio Video Interleave
    File size : 1.36 GiB
    Duration : 1h 30mn
    Overall bit rate : 2 156 Kbps
    Writing application : VirtualDubMod 1.5.10.3 | www.virtualdub-fr.org || (build 2550/release)
    Writing library : VirtualDubMod build 2550/release

    Video
    ID : 0
    Format : MPEG-4 Visual
    Format profile : Advanced Simple@L5
    Format settings, BVOP : 1
    Format settings, QPel : No
    Format settings, GMC : No warppoints
    Format settings, Matrix : Custom
    Codec ID : XVID
    Codec ID/Hint : XviD
    Duration : 1h 30mn
    Bit rate : 1 954 Kbps
    Width : 720 pixels
    Height : 400 pixels
    Display aspect ratio : 16:9
    Frame rate : 25.000 fps
    Color space : YUV
    Chroma subsampling : 4:2:0
    Bit depth : 8 bits
    Scan type : Progressive
    Compression mode : Lossy
    Bits/(Pixel*Frame) : 0.271
    Stream size : 1.24 GiB (91%)
    Writing library : XviD 73

    Audio
    ID : 1
    Format : AC-3
    Format/Info : Audio Coding 3
    Mode extension : CM (complete main)
    Format settings, Endianness : Big
    Codec ID : 2000
    Duration : 1h 30mn
    Bit rate mode : Constant
    Bit rate : 192 Kbps
    Channel(s) : 2 channels
    Channel positions : Front: L R
    Sampling rate : 48.0 KHz
    Compression mode : Lossy
    Stream size : 124 MiB (9%)
    Alignment : Split accross interleaves
    Interleave, duration : 40 ms (1.00 video frame)
    Interleave, preload duratio : 500 ms
9.2 из 10
голосов: 11
/10
/10
grab777 1-11-2015, 08:52
Информация
Посетители, находящиеся в группе Гости, не могут оставлять комментарии к данной публикации.