Панель пользователя
Регистрация

Воспользуйтесь социальными сетями для входа на https://freerutor.com

vk odnoklassniki facebook mailru yandex google
Популярное
Счетчик
Голосуй за нас
VIP на сайте
Популярное
Товары интернет магазина
загрузка...

Выхода нет / No Escape (2015) BDRip 720p | Звук с IPTV

Выхода нет / No Escape (2015) BDRip 720p | Звук с IPTV
Участники торрент обмена
Сидов Пиров Скачали
2 0 1623
Характеристика
Размер Файлы
4.41 GB
Релиз группа
Поделиться раздачей
Фильмы (720,1080,Blu-Ray)
Наименование: Выхода нет
Оригинальное наименование: No Escape
Произведено: США
Категория: боевик, триллер
Режиссер постановщик: Джон Эрик Даудл
В главных ролях: Оуэн Уилсон, Лэйк Белл, Пирс Броснан, Стерлинг Джеринс, Тханавут Касро, Чатчаваи Камонсакпитак, Сахайак Бунсанакит, Танапол Чуксрида, Нопханд Буньяй, Канарпат Финтиянг
Краткое описание: Американец вместе со своей семьей переезжает в Юго-Восточную Азию, но мирно пожить там не удается: вокруг разгорается жестокий военный переворот.
  • Видео данные: MPEG-4 AVC, 5099 kb/s, 1280x690
    Аудио данные: Русский, английский (AC3, 6 ch, 448 Кбит/с)
    Перевод: Дублированный [Звук с IPTV]
    Субтитров: Русский, английский
    Продолжительность: 01:43:11
  • Выхода нет / No Escape (2015) BDRip 720p | Звук с IPTV Выхода нет / No Escape (2015) BDRip 720p | Звук с IPTV Выхода нет / No Escape (2015) BDRip 720p | Звук с IPTV
  • Формат : Matroska
    Версия формата : Version 2
    Размер файла : 4,41 Гбайт
    Продолжительность : 1 ч. 43 м.
    Общий поток : 6117 Кбит/сек
    Дата кодирования : UTC 2015-12-02 17:38:20
    Программа кодирования : mkvmerge v5.3.0 ('I could have danced') built on Feb 9 2012 10:38:07
    Библиотека кодирования : libebml v1.2.3 + libmatroska v1.3.0
    Attachment : Yes

    Видео
    Идентификатор : 1
    Формат : AVC
    Формат/Информация : Advanced Video Codec
    Профиль формата : High@L4.1
    Параметр CABAC формата : Да
    Параметр ReFrames формата : 10 кадров
    Идентификатор кодека : V_MPEG4/ISO/AVC
    Продолжительность : 1 ч. 43 м.
    Битрейт : 5099 Кбит/сек
    Ширина : 1280 пикселей
    Высота : 690 пикселей
    Соотношение сторон : 1,85:1
    Режим частоты кадров : Постоянный
    Частота кадров : 23,976 кадра/сек
    Цветовое пространство : YUV
    Субдискретизация насыщенности : 4:2:0
    Битовая глубина : 8 бит
    Тип развёртки : Прогрессивная
    Бит/(Пиксели*Кадры) : 0.241
    Размер потока : 3,67 Гбайт (83%)
    Библиотека кодирования : x264 core 146 r2538 121396c
    Настройки программы : cabac=1 / ref=10 / deblock=1:-3:-3 / analyse=0x3:0x133 / me=umh / subme=10 / psy=1 / psy_rd=1.00:0.15 / mixed_ref=1 / me_range=32 / chroma_me=1 / trellis=2 / 8x8dct=1 / cqm=0 / deadzone=21,11 / fast_pskip=0 / chroma_qp_offset=-3 / threads=12 / lookahead_threads=2 / sliced_threads=0 / nr=0 / decimate=0 / interlaced=0 / bluray_compat=0 / constrained_intra=0 / bframes=8 / b_pyramid=2 / b_adapt=2 / b_bias=0 / direct=1 / weightb=1 / open_gop=0 / weightp=2 / keyint=240 / keyint_min=23 / scenecut=40 / intra_refresh=0 / rc=crf / mbtree=0 / crf=17.5 / qcomp=0.60 / qpmin=0 / qpmax=69 / qpstep=4 / ip_ratio=1.40 / pb_ratio=1.30 / aq=1:0.70
    Язык : English
    Default : Да
    Forced : Нет

    Аудио #1
    Идентификатор : 2
    Формат : AC-3
    Формат/Информация : Audio Coding 3
    Расширение режима : CM (complete main)
    Параметр Endianness формата : Big
    Идентификатор кодека : A_AC3
    Продолжительность : 1 ч. 43 м.
    Вид битрейта : Постоянный
    Битрейт : 448 Кбит/сек
    Каналы : 6 каналов
    Расположение каналов : Front: L C R, Side: L R, LFE
    Частота : 48,0 КГц
    Битовая глубина : 16 бит
    Метод сжатия : С потерями
    Размер потока : 330 Мбайт (7%)
    Заголовок : Дубляж
    Язык : Russian
    Default : Да
    Forced : Нет

    Аудио #2
    Идентификатор : 3
    Формат : AC-3
    Формат/Информация : Audio Coding 3
    Расширение режима : CM (complete main)
    Параметр Endianness формата : Big
    Идентификатор кодека : A_AC3
    Продолжительность : 1 ч. 43 м.
    Вид битрейта : Постоянный
    Битрейт : 448 Кбит/сек
    Каналы : 6 каналов
    Расположение каналов : Front: L C R, Side: L R, LFE
    Частота : 48,0 КГц
    Битовая глубина : 16 бит
    Метод сжатия : С потерями
    Размер потока : 330 Мбайт (7%)
    Заголовок : оригинал
    Язык : English
    Default : Нет
    Forced : Нет

    Текст #1
    Идентификатор : 4
    Формат : UTF-8
    Идентификатор кодека : S_TEXT/UTF8
    Идентификатор кодека/Информация : UTF-8 Plain Text
    Язык : Russian
    Default : Нет
    Forced : Нет

    Текст #2
    Идентификатор : 5
    Формат : UTF-8
    Идентификатор кодека : S_TEXT/UTF8
    Идентификатор кодека/Информация : UTF-8 Plain Text
    Язык : English
    Default : Да
    Forced : Нет

    Меню
    00:00:00.000 : en:Chapter 01
    00:04:09.832 : en:Chapter 02
    00:10:57.782 : en:Chapter 03
    00:18:41.120 : en:Chapter 04
    00:25:31.655 : en:Chapter 05
    00:34:41.370 : en:Chapter 06
    00:40:04.693 : en:Chapter 07
    00:46:11.894 : en:Chapter 08
    00:52:06.998 : en:Chapter 09
    00:57:36.494 : en:Chapter 10
    01:03:55.498 : en:Chapter 11
    01:11:23.028 : en:Chapter 12
    01:18:58.775 : en:Chapter 13
    01:25:01.137 : en:Chapter 14
    01:31:11.632 : en:Chapter 15
    01:37:39.186 : en:Chapter 16
9.5 из 10
голосов: 11
/10
/10
Раздачу отредактировал: grab777 - 4-12-2015, 08:00
По причине: (Замена 2 ch на 6 ch)
Strelok777 4-12-2015, 08:00

Vecher | 31-10-2015, 16:04 | Статус: Оффлайн

ждем звук....
Информация
Посетители, находящиеся в группе Гости, не могут оставлять комментарии к данной публикации.