Панель пользователя
Регистрация

Воспользуйтесь социальными сетями для входа на https://freerutor.com

vk odnoklassniki facebook mailru yandex google
Популярное
Счетчик
Голосуй за нас
VIP на сайте
Популярное
Товары интернет магазина
загрузка...

Переправа 2 / The Crossing 2 (2015) WEB-DLRip-AVC | Лицензия

Переправа 2 / The Crossing 2 (2015) WEB-DLRip-AVC | Лицензия
Участники торрент обмена
Сидов Пиров Скачали
0 0 827
Характеристика
Размер Файлы
2.41 GB
Релиз группа
Поделиться раздачей
Фильмы (AVC)
Название: Переправа 2
Оригинальное название: The Crossing 2
Жанр: Драма
Выпущено: Китай, Япония, Корея Южная, США / Beijing Gallop Horse Film & TV Production, China Film Group Corporation
Режиссер: Джон Ву
В ролях: Такэси Канэсиро, Чжан Цзыи, Тун Давэй, Масами Нагасава, Фрэнк М. Эхерн, Шан Конг, Джек Као, Хитоми Куроки, Боуи Лам, Вэй Ли
Краткое описание: Герои фильма уже поднялись на борт злополучного корабля «Тайпин». Как и остальные пассажиры лайнера, они оказались на краю смерти. Всё смешалось в бурном потоке волн: радость и печаль, любовь и ненависть, жизнь и смерть. Кто сможет спастись и вырваться из круговорота трагических событий? А кто навсегда останется погребённым в холодных водах Тайваньского пролива?
  • Видео: MPEG-4 AVC, 2345 Кбит/с, 1024х428
    Аудио: AC3, 6 ch, 384 Кбит/с
    Перевод: Дублированный [iTunes]
    Продолжительность: 02:06:16
  • Переправа 2 / The Crossing 2 (2015) WEB-DLRip-AVC | Лицензия Переправа 2 / The Crossing 2 (2015) WEB-DLRip-AVC | Лицензия Переправа 2 / The Crossing 2 (2015) WEB-DLRip-AVC | Лицензия
  • ПереправаPereprava_2_2015_AVC_WEB-DLRip_[scarabey.org].mkv
    Format : Matroska
    Format version : Version 2
    File size : 2.41 GiB
    Duration : 2h 6mn
    Overall bit rate : 2 730 Kbps
    Encoded date : UTC 2015-10-29 13:31:44
    Writing application : mkvmerge v6.1.0 ('Old Devil') built on Mar 4 2013 09:10:42
    Writing library : libebml v1.3.0 + libmatroska v1.4.0

    Video
    ID : 1
    Format : AVC
    Format/Info : Advanced Video Codec
    Format profile : High@L4.1
    Format settings, CABAC : Yes
    Format settings, ReFrames : 10 frames
    Codec ID : V_MPEG4/ISO/AVC
    Duration : 2h 6mn
    Bit rate : 2 345 Kbps
    Width : 1 024 pixels
    Height : 428 pixels
    Display aspect ratio : 2.35:1
    Original display aspect ratio : 2.35:1
    Frame rate mode : Constant
    Frame rate : 24.000 fps
    Color space : YUV
    Chroma subsampling : 4:2:0
    Bit depth : 8 bits
    Scan type : Progressive
    Bits/(Pixel*Frame) : 0.223
    Stream size : 2.02 GiB (84%)
    Writing library : x264 core 148 r2597 e86f3a1
    Encoding settings : cabac=1 / ref=10 / deblock=1:-3:-2 / analyse=0x3:0x113 / me=umh / subme=10 / psy=1 / psy_rd=1.00:0.00 / mixed_ref=1 / me_range=32 / chroma_me=1 / trellis=2 / 8x8dct=1 / cqm=0 / deadzone=21,11 / fast_pskip=1 / chroma_qp_offset=-2 / threads=12 / lookahead_threads=2 / sliced_threads=0 / nr=0 / decimate=0 / interlaced=0 / bluray_compat=0 / constrained_intra=0 / bframes=8 / b_pyramid=2 / b_adapt=2 / b_bias=0 / direct=3 / weightb=1 / open_gop=0 / weightp=2 / keyint=240 / keyint_min=24 / scenecut=40 / intra_refresh=0 / rc_lookahead=40 / rc=2pass / mbtree=1 / bitrate=2345 / ratetol=1.0 / qcomp=0.60 / qpmin=0 / qpmax=69 / qpstep=4 / cplxblur=20.0 / qblur=0.5 / ip_ratio=1.40 / aq=1:1.00
    Default : Yes
    Forced : No

    Audio
    ID : 2
    Format : AC-3
    Format/Info : Audio Coding 3
    Mode extension : CM (complete main)
    Format settings, Endianness : Big
    Codec ID : A_AC3
    Duration : 2h 6mn
    Bit rate mode : Constant
    Bit rate : 384 Kbps
    Channel(s) : 6 channels
    Channel positions : Front: L C R, Side: L R, LFE
    Sampling rate : 48.0 KHz
    Bit depth : 16 bits
    Compression mode : Lossy
    Stream size : 347 MiB (14%)
    Default : Yes
    Forced : No
5.8 из 10
голосов: 4
/10
/10
grab777 30-10-2015, 20:25
Информация
Посетители, находящиеся в группе Гости, не могут оставлять комментарии к данной публикации.