Панель пользователя
Регистрация

Воспользуйтесь социальными сетями для входа на https://freerutor.com

vk odnoklassniki facebook mailru yandex google
Популярное
Счетчик
Голосуй за нас
VIP на сайте
Популярное
Товары интернет магазина
загрузка...

Кровь в вино / Blood Into Wine (2010) BDRip-AVC

Кровь в вино / Blood Into Wine (2010) BDRip-AVC
Участники торрент обмена
Сидов Пиров Скачали
0 0 110
Характеристика
Размер Файлы
2.79 GB
Поделиться раздачей
Документальный
Название: Кровь в вино
Оригинальное название: Blood Into Wine
Жанр: Документальный
Выпущено: США / SemiRebellious Films, Twinkle Cash Company
Режиссер: Райан Пейдж, Кристофер Померенк
В ролях: Гленн Александр, Тим Александр, Файруза Балк, Том Божур, Хью Чаппелль, Гэйл Дил, Кен Фостер, Тим Хайдекер
Краткое описание: Фильм в деталях рассказывает историю вокалиста Tool и A Perfect Circle Мейнарда Джеймса Кинана, заинтересовавшегося виноделием, переехавшего в Аризону, начавшего выращивать там виноград и делать вино, несмотря на скептическое отношение окружающих. Каковы взаимоотношения между его музыкальной карьерой и виноделием? С какими трудностями пришлось столкнуться ему и его партнеру по бизнесу Эрику Гломски? Наконец, что дает им виноделие, и каким образом вино помогает познать себя и окружающий мир?
  • Видео: MPEG-4 AVC, 3284 Kбит/с, 1024x576
    Аудио: Русский (АС3, 2 ch, 192 Кбит/с), английский (АС3, 6 ch, 448 Кбит/с)
    Перевод: Любительский двухголосый [Jetvis studio]
    Продолжительность: 01:39:42
  • Кровь в вино / Blood Into Wine (2010) BDRip-AVC Кровь в вино / Blood Into Wine (2010) BDRip-AVC Кровь в вино / Blood Into Wine (2010) BDRip-AVC
  • Общее
    Уникальный идентификатор : 190449761782404141475021341200628261180 (0x8F474A37A92341EC806E9FD9B333213C)
    Полное имя : D:VideoКровь в вино.2010.BDRip.AVC.mkv
    Формат : Matroska
    Версия формата : Version 4 / Version 2
    Размер файла : 2,79 Гбайт
    Продолжительность : 1 ч. 39 м.
    Общий поток : 4004 Кбит/сек
    Название фильма : BDRip -- STarankov
    Дата кодирования : UTC 2015-10-29 14:00:33
    Программа кодирования : mkvmerge v8.2.0 ('World of Adventure') 64bit
    Библиотека кодирования : libebml v1.3.1 + libmatroska v1.4.2
    DURATION : 01:39:42.048000000
    NUMBER_OF_FRAMES : 186939
    NUMBER_OF_BYTES : 334994688
    _STATISTICS_WRITING_APP : mkvmerge v8.2.0 ('World of Adventure') 64bit
    _STATISTICS_WRITING_DATE_UTC : 2015-10-29 14:00:33
    _STATISTICS_TAGS : BPS DURATION NUMBER_OF_FRAMES NUMBER_OF_BYTES

    Видео
    Идентификатор : 1
    Формат : AVC
    Формат/Информация : Advanced Video Codec
    Профиль формата : High@L4.1
    Параметр CABAC формата : Да
    Параметр ReFrames формата : 9 кадров
    Идентификатор кодека : V_MPEG4/ISO/AVC
    Продолжительность : 1 ч. 39 м.
    Битрейт : 3284 Кбит/сек
    Ширина : 1024 пикселя
    Высота : 576 пикселей
    Соотношение сторон : 16:9
    Режим частоты кадров : Постоянный
    Частота кадров : 23,976 кадра/сек
    Цветовое пространство : YUV
    Субдискретизация насыщенности : 4:2:0
    Битовая глубина : 8 бит
    Тип развёртки : Прогрессивная
    Бит/(Пиксели*Кадры) : 0.232
    Размер потока : 2,29 Гбайт (82%)
    Библиотека кодирования : x264 core 146 r2538 121396c
    Настройки программы : cabac=1 / ref=9 / deblock=1:-1:-1 / analyse=0x3:0x113 / me=umh / subme=10 / psy=1 / psy_rd=1.00:0.15 / mixed_ref=1 / me_range=32 / chroma_me=1 / trellis=2 / 8x8dct=1 / cqm=0 / deadzone=21,11 / fast_pskip=1 / chroma_qp_offset=-3 / threads=6 / lookahead_threads=1 / sliced_threads=0 / nr=0 / decimate=1 / interlaced=0 / bluray_compat=0 / constrained_intra=0 / bframes=8 / b_pyramid=2 / b_adapt=2 / b_bias=0 / direct=1 / weightb=1 / open_gop=0 / weightp=2 / keyint=230 / keyint_min=23 / scenecut=40 / intra_refresh=0 / rc_lookahead=40 / rc=crf / mbtree=0 / crf=16.0 / qcomp=0.60 / qpmin=0 / qpmax=69 / qpstep=4 / vbv_maxrate=40000 / vbv_bufsize=50000 / crf_max=0.0 / nal_hrd=none / filler=0 / ip_ratio=1.40 / pb_ratio=1.30 / aq=1:1.00
    Язык : English
    Default : Да
    Forced : Нет
    DURATION : 01:39:42.560000000
    NUMBER_OF_FRAMES : 143438
    NUMBER_OF_BYTES : 2513902389
    _STATISTICS_WRITING_APP : mkvmerge v8.2.0 ('World of Adventure') 64bit
    _STATISTICS_WRITING_DATE_UTC : 2015-10-29 14:00:33
    _STATISTICS_TAGS : BPS DURATION NUMBER_OF_FRAMES NUMBER_OF_BYTES

    Аудио #1
    Идентификатор : 2
    Формат : AC-3
    Формат/Информация : Audio Coding 3
    Расширение режима : CM (complete main)
    Параметр Endianness формата : Big
    Идентификатор кодека : A_AC3
    Продолжительность : 1 ч. 39 м.
    Вид битрейта : Постоянный
    Битрейт : 192 Кбит/сек
    Каналы : 2 канала
    Расположение каналов : Front: L R
    Частота : 48,0 КГц
    Метод сжатия : С потерями
    Размер потока : 137 Мбайт (5%)
    Заголовок : DVO (любительский, Jetvis studio)
    Язык : Russian
    Default : Да
    Forced : Нет

    Аудио #2
    Идентификатор : 3
    Формат : AC-3
    Формат/Информация : Audio Coding 3
    Расширение режима : CM (complete main)
    Параметр Endianness формата : Big
    Идентификатор кодека : A_AC3
    Продолжительность : 1 ч. 39 м.
    Вид битрейта : Постоянный
    Битрейт : 448 Кбит/сек
    Каналы : 6 каналов
    Расположение каналов : Front: L C R, Side: L R, LFE
    Частота : 48,0 КГц
    Метод сжатия : С потерями
    Размер потока : 320 Мбайт (11%)
    Заголовок : Original
    Язык : English
    Default : Нет
    Forced : Нет
10.0 из 10
голосов: 2
/10
/10
grab777 30-10-2015, 18:55

nechinez | 30-10-2015, 22:38 | Статус: Оффлайн

Обламался drunk
Информация
Посетители, находящиеся в группе Гости, не могут оставлять комментарии к данной публикации.