Панель пользователя
Регистрация

Воспользуйтесь социальными сетями для входа на https://freerutor.com

vk odnoklassniki facebook mailru yandex google
Популярное
Счетчик
Голосуй за нас
VIP на сайте
Популярное
Товары интернет магазина
загрузка...

До наступления зимы / Avant l'hiver (2013) BDRip 720p

До наступления зимы / Avant l'hiver (2013) BDRip 720p
Участники торрент обмена
Сидов Пиров Скачали
0 0 63
Характеристика
Размер Файлы
2.64 GB
Поделиться раздачей
Фильмы (720,1080,Blu-Ray)
Название: Перед зимой
Оригинальное название: Avant l'hiver
Жанр: Драма
Выпущено: Франция, Люксембург / Les films du 24, Samsa Film, France 3 Cinéma, Canal+ [fr], A Plus Image 4
Режиссер: Филипп Клодель
В ролях: Даниель Отой, Кристин Скотт Томас, Лейла Бехти, Ришар Берри, Вики Крипс, Жером Варанфран, Лор Киллинг, Виктуар Метцлер, Лоран Кларе
Краткое описание: Люси предполагает, что её муж, пожилой нейрохирург Поль, завёл роман. Действительно, в последнее время Поль ведет себя странно. Но поиск истины оказывается очень сложным.
  • Видео: MPEG-4 AVC, 2969 Кбит/с, 1280х534
    Аудио: Русский (AC3, 2 ch, 192 Кбит/с), французский (AC3, 6 ch, 448 Кбит/с)
    Перевод: Профессиональный многоголосый
    Продолжительность: 01:42:35
  • До наступления зимы / Avant l'hiver (2013) BDRip 720p До наступления зимы / Avant l'hiver (2013) BDRip 720p До наступления зимы / Avant l'hiver (2013) BDRip 720p
  • Общее
    Уникальный идентификатор : 227875738244335456532966491582626578317 (0xAB6F455263AACC5380015972FCACBF8D)
    Полное имя : D:VideoПеред зимой.2013.BDRip.720p.mkv
    Формат : Matroska
    Версия формата : Version 4 / Version 2
    Размер файла : 2,64 Гбайт
    Продолжительность : 1 ч. 42 м.
    Общий поток : 3682 Кбит/сек
    Название фильма : BDRip -- STarankov
    Дата кодирования : UTC 2015-10-30 09:46:46
    Программа кодирования : mkvmerge v8.2.0 ('World of Adventure') 64bit
    Библиотека кодирования : libebml v1.3.1 + libmatroska v1.4.2
    DURATION : 01:42:35.136000000
    NUMBER_OF_FRAMES : 192348
    NUMBER_OF_BYTES : 344687616
    _STATISTICS_WRITING_APP : mkvmerge v8.2.0 ('World of Adventure') 64bit
    _STATISTICS_WRITING_DATE_UTC : 2015-10-30 09:46:46
    _STATISTICS_TAGS : BPS DURATION NUMBER_OF_FRAMES NUMBER_OF_BYTES

    Видео
    Идентификатор : 1
    Формат : AVC
    Формат/Информация : Advanced Video Codec
    Профиль формата : High@L4.1
    Параметр CABAC формата : Да
    Параметр ReFrames формата : 9 кадров
    Идентификатор кодека : V_MPEG4/ISO/AVC
    Продолжительность : 1 ч. 42 м.
    Битрейт : 2969 Кбит/сек
    Ширина : 1280 пикселей
    Высота : 534 пикселя
    Соотношение сторон : 2,40:1
    Режим частоты кадров : Постоянный
    Частота кадров : 24,000 кадра/сек
    Цветовое пространство : YUV
    Субдискретизация насыщенности : 4:2:0
    Битовая глубина : 8 бит
    Тип развёртки : Прогрессивная
    Бит/(Пиксели*Кадры) : 0.181
    Размер потока : 2,13 Гбайт (81%)
    Библиотека кодирования : x264 core 146 r2538 121396c
    Настройки программы : cabac=1 / ref=9 / deblock=1:-1:-1 / analyse=0x3:0x113 / me=umh / subme=10 / psy=1 / psy_rd=1.00:0.15 / mixed_ref=1 / me_range=32 / chroma_me=1 / trellis=2 / 8x8dct=1 / cqm=0 / deadzone=21,11 / fast_pskip=1 / chroma_qp_offset=-3 / threads=6 / lookahead_threads=1 / sliced_threads=0 / nr=0 / decimate=1 / interlaced=0 / bluray_compat=0 / constrained_intra=0 / bframes=10 / b_pyramid=2 / b_adapt=2 / b_bias=0 / direct=1 / weightb=1 / open_gop=0 / weightp=2 / keyint=230 / keyint_min=23 / scenecut=40 / intra_refresh=0 / rc_lookahead=40 / rc=crf / mbtree=0 / crf=17.0 / qcomp=0.60 / qpmin=0 / qpmax=69 / qpstep=4 / vbv_maxrate=40000 / vbv_bufsize=50000 / crf_max=0.0 / nal_hrd=none / filler=0 / ip_ratio=1.40 / pb_ratio=1.30 / aq=1:1.00
    Язык : French
    Default : Да
    Forced : Нет
    DURATION : 01:42:35.125000000
    NUMBER_OF_FRAMES : 147723
    NUMBER_OF_BYTES : 2339200202
    _STATISTICS_WRITING_APP : mkvmerge v8.2.0 ('World of Adventure') 64bit
    _STATISTICS_WRITING_DATE_UTC : 2015-10-30 09:46:46
    _STATISTICS_TAGS : BPS DURATION NUMBER_OF_FRAMES NUMBER_OF_BYTES

    Аудио #1
    Идентификатор : 2
    Формат : AC-3
    Формат/Информация : Audio Coding 3
    Расширение режима : CM (complete main)
    Параметр Endianness формата : Big
    Идентификатор кодека : A_AC3
    Продолжительность : 1 ч. 42 м.
    Вид битрейта : Постоянный
    Битрейт : 192 Кбит/сек
    Каналы : 2 канала
    Расположение каналов : Front: L R
    Частота : 48,0 КГц
    Метод сжатия : С потерями
    Размер потока : 141 Мбайт (5%)
    Заголовок : MVO
    Язык : Russian
    Default : Да
    Forced : Нет

    Аудио #2
    Идентификатор : 3
    Формат : AC-3
    Формат/Информация : Audio Coding 3
    Расширение режима : CM (complete main)
    Параметр Endianness формата : Big
    Идентификатор кодека : A_AC3
    Продолжительность : 1 ч. 42 м.
    Вид битрейта : Постоянный
    Битрейт : 448 Кбит/сек
    Каналы : 6 каналов
    Расположение каналов : Front: L C R, Side: L R, LFE
    Частота : 48,0 КГц
    Метод сжатия : С потерями
    Размер потока : 329 Мбайт (12%)
    Заголовок : Original
    Язык : French
    Default : Нет
    Forced : Нет
5.5 из 10
голосов: 2
/10
/10
grab777 30-10-2015, 18:29
Информация
Посетители, находящиеся в группе Гости, не могут оставлять комментарии к данной публикации.