Панель пользователя
Регистрация

Воспользуйтесь социальными сетями для входа на https://freerutor.com

vk odnoklassniki facebook mailru yandex google
Популярное
Счетчик
Голосуй за нас
VIP на сайте
Популярное
Товары интернет магазина
загрузка...

Арестуйте меня / Arrêtez-moi (2013) BD-Remux 1080p

Арестуйте меня / Arrêtez-moi (2013) BD-Remux 1080p
Участники торрент обмена
Сидов Пиров Скачали
0 0 10
Характеристика
Размер Файлы
27.85 GB
Поделиться раздачей
Фильмы (720,1080,Blu-Ray)
Название: Арестуйте меня
Оригинальное название: Arrêtez-moi
Жанр: Триллер
Выпущено: Франция / Rezo Productions, Iris Productions, Iris Films
Режиссер: Жан-Поль Лильенфельд
В ролях: Софи Марсо, Миу-Миу, Янн Эбонж, Марк Барбе, Валери Бодсон, Артур Бюиссен, Вадим Гудсмитс, Клодин Пеллетье, Женни Клев, Роже Де Моэрлос
Краткое описание: Однажды вечером женщина приходит в полицейский участок, чтобы признаться в убийстве своего мужа, совершенном десять лет назад, мужа, который издевался над ней и регулярно избивал ее. Несмотря на то, что следствие тогда пришло к выводу, что смерть была либо случайной, либо наступила в результате самоубийства, вдова покойного заявляет, что это все — дело ее рук.
  • Видео: MPEG-4 AVC, 30000 Кбит/с, 1920х1080
    Аудио: Русский (DTS-HD MА, 6 ch, 1509 Кбит/с), (DTS, 6 ch, 1509 Кбит/с), французский (DTS-HD MА, 6 ch, 1509 Кбит/с), (DTS, 6 ch, 1509 Кбит/с)
    Перевод: Профессиональный многоголосый
    Субтитры: Русские, французские
    Продолжительность: 01:39:33
  • Арестуйте меня / Arrêtez-moi (2013) BD-Remux 1080p Арестуйте меня / Arrêtez-moi (2013) BD-Remux 1080p Арестуйте меня / Arrêtez-moi (2013) BD-Remux 1080p
  • General
    Unique ID : 101618517913847887006634067046881439325 (0x4C7303C075B382D9BB6B6A6144DE2E5D)
    Complete name : 2013 Арестуйте меня_Arrêtez-moi.mkv
    Format : Matroska
    Format version : Version 2
    File size : 27.9 GiB
    Duration : 1h 39mn
    Overall bit rate mode : Variable
    Overall bit rate : 40.1 Mbps
    Encoded date : UTC 2015-10-28 04:24:31
    Writing application : MakeMKV v1.9.5 win(x64-release)
    Writing library : libmakemkv v1.9.5 (1.3.0/1.4.1) win(x64-release)

    Video
    ID : 1
    Format : AVC
    Format/Info : Advanced Video Codec
    Format profile : High@L4.1
    Format settings, CABAC : Yes
    Format settings, ReFrames : 3 frames
    Codec ID : V_MPEG4/ISO/AVC
    Duration : 1h 39mn
    Bit rate mode : Variable
    Nominal bit rate : 30.0 Mbps
    Maximum bit rate : 36.0 Mbps
    Width : 1 920 pixels
    Height : 1 080 pixels
    Display aspect ratio : 16:9
    Frame rate mode : Constant
    Frame rate : 24.000 fps
    Color space : YUV
    Chroma subsampling : 4:2:0
    Bit depth : 8 bits
    Scan type : Progressive
    Bits/(Pixel*Frame) : 0.603
    Writing library : x264 core 133 r2334 a3ac64b
    Language : English
    Default : No
    Forced : No
    Color range : Limited
    Color primaries : BT.709
    Transfer characteristics : BT.709
    Matrix coefficients : BT.709

    Audio #1
    ID : 2
    Format : DTS
    Format/Info : Digital Theater Systems
    Format profile : MA / Core
    Mode : 16
    Format settings, Endianness : Big
    Codec ID : A_DTS
    Duration : 1h 39mn
    Bit rate mode : Variable
    Bit rate : Unknown / 1 509 Kbps
    Channel(s) : 6 channels
    Channel positions : Front: L C R, Side: L R, LFE
    Sampling rate : 48.0 KHz
    Bit depth : 24 bits
    Compression mode : Lossless / Lossy
    Title : Surround 5.1
    Language : Russian
    Default : Yes
    Forced : No

    Audio #2
    ID : 3
    Format : DTS
    Format/Info : Digital Theater Systems
    Mode : 16
    Format settings, Endianness : Big
    Codec ID : A_DTS
    Duration : 1h 39mn
    Bit rate mode : Constant
    Bit rate : 1 509 Kbps
    Channel(s) : 6 channels
    Channel positions : Front: L C R, Side: L R, LFE
    Sampling rate : 48.0 KHz
    Bit depth : 24 bits
    Compression mode : Lossy
    Stream size : 1.05 GiB (4%)
    Title : Surround 5.1
    Language : Russian
    Default : No
    Forced : No

    Audio #3
    ID : 4
    Format : DTS
    Format/Info : Digital Theater Systems
    Format profile : MA / Core
    Mode : 16
    Format settings, Endianness : Big
    Codec ID : A_DTS
    Duration : 1h 39mn
    Bit rate mode : Variable
    Bit rate : Unknown / 1 509 Kbps
    Channel(s) : 6 channels
    Channel positions : Front: L C R, Side: L R, LFE
    Sampling rate : 48.0 KHz
    Bit depth : 24 bits
    Compression mode : Lossless / Lossy
    Title : Surround 5.1
    Language : French
    Default : No
    Forced : No

    Audio #4
    ID : 5
    Format : DTS
    Format/Info : Digital Theater Systems
    Mode : 16
    Format settings, Endianness : Big
    Codec ID : A_DTS
    Duration : 1h 39mn
    Bit rate mode : Constant
    Bit rate : 1 509 Kbps
    Channel(s) : 6 channels
    Channel positions : Front: L C R, Side: L R, LFE
    Sampling rate : 48.0 KHz
    Bit depth : 24 bits
    Compression mode : Lossy
    Stream size : 1.05 GiB (4%)
    Title : Surround 5.1
    Language : French
    Default : No
    Forced : No

    Text #1
    ID : 6
    Format : PGS
    Codec ID : S_HDMV/PGS
    Codec ID/Info : Picture based subtitle format used on BDs/HD-DVDs
    Language : Russian
    Default : No
    Forced : No

    Text #2
    ID : 8
    Format : PGS
    Codec ID : S_HDMV/PGS
    Codec ID/Info : Picture based subtitle format used on BDs/HD-DVDs
    Language : French
    Default : No
    Forced : No

    Menu
    00:00:00.000 : en:Chapter 00
    00:00:14.125 : en:Chapter 01
    00:08:32.791 : en:Chapter 02
    00:17:09.791 : en:Chapter 03
    00:24:35.250 : en:Chapter 04
    00:33:21.250 : en:Chapter 05
    00:42:25.666 : en:Chapter 06
    00:49:24.791 : en:Chapter 07
    00:59:50.916 : en:Chapter 08
    01:10:13.833 : en:Chapter 09
    01:21:20.375 : en:Chapter 10
    01:28:59.041 : en:Chapter 11
    01:36:00.791 : en:Chapter 12
10.0 из 10
голосов: 1
/10
/10
grab777 30-10-2015, 11:57
Информация
Посетители, находящиеся в группе Гости, не могут оставлять комментарии к данной публикации.