Панель пользователя
Регистрация

Воспользуйтесь социальными сетями для входа на https://freerutor.com

vk odnoklassniki facebook mailru yandex google
Популярное
Счетчик
Голосуй за нас
VIP на сайте
Популярное
Товары интернет магазина
загрузка...

Хороший, плохой, долбанутый / The Good, the Bad, the Weird / Joheunnom nabbeunnom isanghannom (2008) BDRip 720p | Корейская версия

Хороший, плохой, долбанутый / The Good, the Bad, the Weird / Joheunnom nabbeunnom isanghannom (2008) BDRip 720p | Корейская версия
Участники торрент обмена
Сидов Пиров Скачали
0 0 220
Характеристика
Размер Файлы
7.96 GB
Поделиться раздачей
Фильмы (720,1080,Blu-Ray)
Наименование: Хороший, плохой, долбанутый
Оригинальное наименование: Joheunnom nabbeunnom isanghannom
Жанр: боевик, комедия, приключения, вестерн
Производство: Южная Корея, CJ Entertainment, Cineclick Asia, Barunson, Grimm Pictures
Режиссер: Ким Чжи Ун
В главных ролях: Сон Кан Хо, Ли Бён Хон, Чон У Сон, Юн Чже Мун, Рю Сын Су, Сон Ён Чан, Сон Бён Хо, О Даль Су
Краткое описание: Тридцатые годы XX века. Мир находится в хаосе. В северо-восточной Азии корейский полуостров захвачен японскими империалистами. Множество корейцев, спасаясь от оккупантов, стекается в Маньчжурию, обширные земли лошадей и степей, граничащую с их родиной и Китаем. Некоторые из них неминуемо становятся бандитами, чтобы раздобыть себе пропитание на этой бесплодной пустоши.

Тхэ Гу — вор. Однажды он грабит военный японский поезд, но все не так банально, как может показаться на первый взгляд. В самый разгар этой ожесточенной перестрелки с японцами к нему попадает таинственная карта, которая ведет к сокровищам династии Цин, спрятанным где-то в Маньчжурии. Вдобавок к этому, карту также пытается заполучить хладнокровный убийца, Чан И. Тхэ Гу должен сражаться не только с японцами, но и с ним и его головорезами, которые атаковали поезд в тоже время, что и он. В конце напряженной перестрелки буквально из ниоткуда появляется таинственный человек и спасает Тхэ Гу.
  • Видео данные: MPEG-4 AVC, ~6691 Kbps, 1280x544
    Аудио данные: Русский (АС3, 6 ch, 448 Kbps), (АС3, 6 ch, 640 Kbps), корейский (АС3, 6 ch, 640 Kbps)
    Перевод: Многоголосый (Cinema Prestige) + Авторский (Юрий Сербин)
    Субтитры: Русские, английские
    Продолжительность: 02:15:18
  • Хороший, плохой, долбанутый / The Good, the Bad, the Weird / Joheunnom nabbeunnom isanghannom (2008) BDRip 720p | Корейская версия Хороший, плохой, долбанутый / The Good, the Bad, the Weird / Joheunnom nabbeunnom isanghannom (2008) BDRip 720p | Корейская версия Хороший, плохой, долбанутый / The Good, the Bad, the Weird / Joheunnom nabbeunnom isanghannom (2008) BDRip 720p | Корейская версия
  • General
    Unique ID : 175066920507382157522805948185341264109 (0x83B4A9962BDC9358BB5963D74EAB00ED)
    Complete name : E:The.Good,the.Bad,the.Weird.2008.x264.BDRip.720p.Korean.Cut.mkv
    Format : Matroska
    Format version : Version 4 / Version 2
    File size : 7.96 GiB
    Duration : 2h 15mn
    Overall bit rate : 8 421 Kbps
    Encoded date : UTC 2013-07-31 13:26:56
    Writing application : mkvmerge v6.2.0 ('Promised Land') built on Apr 28 2013 12:22:01
    Writing library : libebml v1.3.0 + libmatroska v1.4.0

    Video
    ID : 1
    Format : AVC
    Format/Info : Advanced Video Codec
    Format profile : High@L4.1
    Format settings, CABAC : Yes
    Format settings, ReFrames : 9 frames
    Codec ID : V_MPEG4/ISO/AVC
    Duration : 2h 15mn
    Bit rate : 6 691 Kbps
    Width : 1 280 pixels
    Height : 544 pixels
    Display aspect ratio : 2.35:1
    Frame rate mode : Constant
    Frame rate : 23.976 fps
    Color space : YUV
    Chroma subsampling : 4:2:0
    Bit depth : 8 bits
    Scan type : Progressive
    Bits/(Pixel*Frame) : 0.401
    Stream size : 6.17 GiB (77%)
    Writing library : x264 core 135 r2345 f0c1c53
    Encoding settings : cabac=1 / ref=9 / deblock=1:-3:-3 / analyse=0x3:0x133 / me=tesa / subme=11 / psy=1 / psy_rd=1.00:0.06 / mixed_ref=1 / me_range=32 / chroma_me=1 / trellis=2 / 8x8dct=1 / cqm=0 / deadzone=21,11 / fast_pskip=0 / chroma_qp_offset=-3 / threads=12 / lookahead_threads=1 / sliced_threads=0 / nr=0 / decimate=0 / interlaced=0 / bluray_compat=0 / constrained_intra=0 / bframes=6 / b_pyramid=2 / b_adapt=2 / b_bias=0 / direct=3 / weightb=1 / open_gop=0 / weightp=2 / keyint=240 / keyint_min=23 / scenecut=40 / intra_refresh=0 / rc=2pass / mbtree=0 / bitrate=6691 / ratetol=1.0 / qcomp=0.60 / qpmin=0 / qpmax=69 / qpstep=4 / cplxblur=20.0 / qblur=0.5 / ip_ratio=1.40 / pb_ratio=1.30 / aq=1:1.00
    Language : Korean
    Default : Yes
    Forced : No

    Audio #1
    ID : 2
    Format : AC-3
    Format/Info : Audio Coding 3
    Mode extension : CM (complete main)
    Format settings, Endianness : Big
    Codec ID : A_AC3
    Duration : 2h 15mn
    Bit rate mode : Constant
    Bit rate : 448 Kbps
    Channel(s) : 6 channels
    Channel positions : Front: L C R, Side: L R, LFE
    Sampling rate : 48.0 KHz
    Bit depth : 16 bits
    Compression mode : Lossy
    Stream size : 434 MiB (5%)
    Title : AC3 5.1ch 448 kbps - Многоголосый, Cinema Prestige
    Language : Russian
    Default : Yes
    Forced : No

    Audio #2
    ID : 3
    Format : AC-3
    Format/Info : Audio Coding 3
    Mode extension : CM (complete main)
    Format settings, Endianness : Big
    Codec ID : A_AC3
    Duration : 2h 15mn
    Bit rate mode : Constant
    Bit rate : 640 Kbps
    Channel(s) : 6 channels
    Channel positions : Front: L C R, Side: L R, LFE
    Sampling rate : 48.0 KHz
    Bit depth : 16 bits
    Compression mode : Lossy
    Stream size : 619 MiB (8%)
    Title : AC3 5.1ch 640 kbps - Авторский, Ю. Сербин
    Language : Russian
    Default : No
    Forced : No

    Audio #3
    ID : 4
    Format : AC-3
    Format/Info : Audio Coding 3
    Mode extension : CM (complete main)
    Format settings, Endianness : Big
    Codec ID : A_AC3
    Duration : 2h 15mn
    Bit rate mode : Constant
    Bit rate : 640 Kbps
    Channel(s) : 6 channels
    Channel positions : Front: L C R, Side: L R, LFE
    Sampling rate : 48.0 KHz
    Bit depth : 16 bits
    Compression mode : Lossy
    Stream size : 619 MiB (8%)
    Title : AC3 5.1ch 640 kbps - Корейский
    Language : Korean
    Default : No
    Forced : No

    Text #1
    ID : 5
    Format : UTF-8
    Codec ID : S_TEXT/UTF8
    Codec ID/Info : UTF-8 Plain Text
    Title : Русские
    Language : Russian
    Default : No
    Forced : No

    Text #2
    ID : 6
    Format : UTF-8
    Codec ID : S_TEXT/UTF8
    Codec ID/Info : UTF-8 Plain Text
    Title : Английские
    Language : English
    Default : No
    Forced : No

    Menu
    00:00:00.000 : :0:00:00.000
    00:04:37.777 : :0:04:37.777
    00:09:59.432 : :0:09:59.432
    00:20:43.992 : :0:20:43.992
    00:26:30.714 : :0:26:30.714
    00:33:43.229 : :0:33:43.229
    00:41:15.472 : :0:41:15.472
    00:49:08.820 : :0:49:08.820
    00:50:48.044 : :0:50:48.044
    00:56:27.509 : :0:56:27.509
    01:07:29.044 : :1:07:29.044
    01:17:10.625 : :1:17:10.625
    01:28:26.092 : :1:28:26.092
    01:33:41.615 : :1:33:41.615
    01:45:57.601 : :1:45:57.601
    01:52:21.234 : :1:52:21.234
    01:59:21.612 : :1:59:21.612
    02:05:38.530 : :2:05:38.530
    02:08:49.721 : :2:08:49.721
10.0 из 10
голосов: 1
/10
/10
Zhakkkkke 27-10-2015, 13:09
Информация
Посетители, находящиеся в группе Гости, не могут оставлять комментарии к данной публикации.