Панель пользователя
Регистрация

Воспользуйтесь социальными сетями для входа на https://freerutor.com

vk odnoklassniki facebook mailru yandex google
Популярное
Счетчик
Голосуй за нас
VIP на сайте
Популярное
Товары интернет магазина
загрузка...

Хороший, плохой, долбанутый / The Good, the Bad, the Weird / Joheunnom nabbeunnom isanghannom (2008) BDRip 1080p | Корейская версия

Хороший, плохой, долбанутый / The Good, the Bad, the Weird / Joheunnom nabbeunnom isanghannom (2008) BDRip 1080p | Корейская версия
Участники торрент обмена
Сидов Пиров Скачали
0 0 17
Характеристика
Размер Файлы
11.54 GB
Релиз группа
Поделиться раздачей
Фильмы (720,1080,Blu-Ray)
Наименование: Хороший, плохой, долбанутый
Оригинальное наименование: Joheunnom nabbeunnom isanghannom
Жанр: Боевик, комедия, приключения, вестерн
Производство: Южная Корея, CJ Entertainment, Cineclick Asia, Barunson, Grimm Pictures
Режиссер: Ким Чжи Ун
В главных ролях: Сон Кан Хо, Ли Бён Хон, Чон У Сон, Юн Чже Мун, Рю Сын Су, Сон Ён Чан, Сон Бён Хо, О Даль Су
Краткое описание: Тридцатые годы XX века. Мир находится в хаосе. В северо-восточной Азии корейский полуостров захвачен японскими империалистами. Множество корейцев, спасаясь от оккупантов, стекается в Маньчжурию, обширные земли лошадей и степей, граничащую с их родиной и Китаем. Некоторые из них неминуемо становятся бандитами, чтобы раздобыть себе пропитание на этой бесплодной пустоши.

Тхэ Гу — вор. Однажды он грабит военный японский поезд, но все не так банально, как может показаться на первый взгляд. В самый разгар этой ожесточенной перестрелки с японцами к нему попадает таинственная карта, которая ведет к сокровищам династии Цин, спрятанным где-то в Маньчжурии. Вдобавок к этому, карту также пытается заполучить хладнокровный убийца, Чан И. Тхэ Гу должен сражаться не только с японцами, но и с ним и его головорезами, которые атаковали поезд в тоже время, что и он. В конце напряженной перестрелки буквально из ниоткуда появляется таинственный человек и спасает Тхэ Гу.
  • Видео данные: MPEG-4 AVC, ~11.3 Mbps, 1918x816
    Аудио данные: Русский (АС3, 6 ch, 448 Kbps), корейский (АС3, 6 ch, 448 Kbps)
    Перевод: Авторский одноголосый (Юрий Сербин)
    Субтитры: Русские, английские
    Продолжительность: 02:15:18
  • Хороший, плохой, долбанутый / The Good, the Bad, the Weird / Joheunnom nabbeunnom isanghannom (2008) BDRip 1080p | Корейская версия Хороший, плохой, долбанутый / The Good, the Bad, the Weird / Joheunnom nabbeunnom isanghannom (2008) BDRip 1080p | Корейская версия Хороший, плохой, долбанутый / The Good, the Bad, the Weird / Joheunnom nabbeunnom isanghannom (2008) BDRip 1080p | Корейская версия
  • Format : Matroska
    Format version : Version 2
    File size : 11.5 GiB
    Duration : 2h 15mn
    Overall bit rate : 12.2 Mbps
    Movie name : Хороший, плохой, долбанутый.(2008).BDRip.1080p.[envy]
    Encoded date : UTC 2015-10-27 05:48:44
    Writing application : mkvmerge v5.8.0 ('No Sleep / Pillow') built on Sep 2 2012 15:37:04
    Writing library : libebml v1.2.3 + libmatroska v1.3.0

    Video
    ID : 1
    Format : AVC
    Format/Info : Advanced Video Codec
    Format profile : High@L4.1
    Format settings, CABAC : Yes
    Format settings, ReFrames : 5 frames
    Codec ID : V_MPEG4/ISO/AVC
    Duration : 2h 15mn
    Bit rate : 11.3 Mbps
    Width : 1 918 pixels
    Height : 816 pixels
    Display aspect ratio : 2.35:1
    Frame rate mode : Constant
    Frame rate : 23.976 fps
    Color space : YUV
    Chroma subsampling : 4:2:0
    Bit depth : 8 bits
    Scan type : Progressive
    Bits/(Pixel*Frame) : 0.302
    Stream size : 10.5 GiB (91%)
    Title : Хороший, плохой, долбанутый.(2008).BDRip.1080p.[envy]
    Writing library : x264 core 148 r2638 7599210
    Encoding settings : cabac=1 / ref=5 / deblock=1:-3:-3 / analyse=0x3:0x133 / me=umh / subme=11 / psy=1 / psy_rd=1.00:0.00 / mixed_ref=1 / me_range=32 / chroma_me=1 / trellis=2 / 8x8dct=1 / cqm=0 / deadzone=21,11 / fast_pskip=0 / chroma_qp_offset=-2 / threads=12 / lookahead_threads=1 / sliced_threads=0 / nr=0 / decimate=1 / interlaced=0 / bluray_compat=0 / constrained_intra=0 / bframes=6 / b_pyramid=2 / b_adapt=2 / b_bias=0 / direct=3 / weightb=1 / open_gop=0 / weightp=2 / keyint=240 / keyint_min=23 / scenecut=40 / intra_refresh=0 / rc=2pass / mbtree=0 / bitrate=11322 / ratetol=2.0 / qcomp=0.60 / qpmin=0 / qpmax=69 / qpstep=4 / cplxblur=20.0 / qblur=0.5 / ip_ratio=1.40 / pb_ratio=1.30 / aq=2:0.70
    Language : Korean
    Default : Yes
    Forced : No

    Audio #1
    ID : 2
    Format : AC-3
    Format/Info : Audio Coding 3
    Mode extension : CM (complete main)
    Format settings, Endianness : Big
    Codec ID : A_AC3
    Duration : 2h 15mn
    Bit rate mode : Constant
    Bit rate : 448 Kbps
    Channel(s) : 6 channels
    Channel positions : Front: L C R, Side: L R, LFE
    Sampling rate : 48.0 KHz
    Compression mode : Lossy
    Stream size : 434 MiB (4%)
    Title : AVO Serbin
    Language : Russian
    Default : Yes
    Forced : No

    Audio #2
    ID : 3
    Format : AC-3
    Format/Info : Audio Coding 3
    Mode extension : CM (complete main)
    Format settings, Endianness : Big
    Codec ID : A_AC3
    Duration : 2h 15mn
    Bit rate mode : Constant
    Bit rate : 448 Kbps
    Channel(s) : 6 channels
    Channel positions : Front: L C R, Side: L R, LFE
    Sampling rate : 48.0 KHz
    Compression mode : Lossy
    Stream size : 434 MiB (4%)
    Title : Kor
    Language : Korean
    Default : No
    Forced : No

    Text #1
    ID : 4
    Format : UTF-8
    Codec ID : S_TEXT/UTF8
    Codec ID/Info : UTF-8 Plain Text
    Title : Rus full
    Language : Russian
    Default : No
    Forced : No

    Text #2
    ID : 5
    Format : UTF-8
    Codec ID : S_TEXT/UTF8
    Codec ID/Info : UTF-8 Plain Text
    Title : Eng full
    Language : English
    Default : No
    Forced : No

    Menu
    00:00:00.000 : :Chapter 01
    00:04:37.777 : :Chapter 02
    00:09:59.432 : :Chapter 03
    00:20:43.992 : :Chapter 04
    00:26:30.714 : :Chapter 05
    00:33:43.229 : :Chapter 06
    00:41:15.472 : :Chapter 07
    00:49:08.820 : :Chapter 08
    00:50:48.044 : :Chapter 09
    00:56:27.509 : :Chapter 10
    01:07:29.044 : :Chapter 11
    01:17:10.625 : :Chapter 12
    01:28:26.092 : :Chapter 13
    01:33:41.615 : :Chapter 14
    01:45:57.601 : :Chapter 15
    01:52:21.234 : :Chapter 16
    01:59:21.612 : :Chapter 17
    02:05:38.530 : :Chapter 18
    02:08:49.721 : :Chapter 19
10.0 из 10
голосов: 1
/10
/10
Zhakkkkke 27-10-2015, 13:00
Информация
Посетители, находящиеся в группе Гости, не могут оставлять комментарии к данной публикации.