Панель пользователя
Регистрация

Воспользуйтесь социальными сетями для входа на https://freerutor.com

vk odnoklassniki facebook mailru yandex google
Популярное
Счетчик
Голосуй за нас
VIP на сайте
Популярное
Товары интернет магазина
загрузка...

Притворись моим мужем / You May Not Kiss the Bride (2012) BDRip-AVC | Лицензия

Притворись моим мужем / You May Not Kiss the Bride (2012) BDRip-AVC | Лицензия
Участники торрент обмена
Сидов Пиров Скачали
0 0 131
Характеристика
Размер Файлы
1.37 GB
Релиз группа
Поделиться раздачей
Фильмы (AVC)
Название: Притворись моим мужем
Оригинальное название: You May Not Kiss the Bride
Жанр: Мелодрама, комедия, приключения
Выпущено: США / Hawaii Film Partners, Luminair Film Productions Inc., Showcase Entertainment
Режиссер: Роб Хедден
В ролях: Дэйв Эннэйбл, Кэтрин МакФи, Роб Шнайдер, Мена Сувари, Кэти Бэйтс, Кен Давитян, Тиа Каррере, Кевин Данн, Винни Джонс, Стивен Тоболовски
Краткое описание: Скромному фотографу Брайану Лайтхаусу не повезло. Совершенно неожиданно он оказался в долгу перед обосновавшимся в США хорватским криминальным авторитетом Вадиком Никитиным. Теперь Брайану нужно жениться на дочери бандита Маше, чтобы та смогла беспрепятственно получить американское гражданство, а потом спокойно развестись. Есть и другое условие: брак — браком, но к невесте горе-жених и пальцем не должен прикасаться. И это самая непростая часть договора, потому что девушка — ослепительная красавица. Дело осложняется и тем, что во время медового месяца на далеком экзотическом острове новоиспеченную жену похищают неизвестные. Ее возвращение становится для Брайана вопросом жизни и смерти…
  • Видео: MPEG-4 AVC, 1570 Кбит/с, 1024x576
    Аудио: Русский (AC3, 6 ch, 384 Кбит/c)
    Перевод: Профессиональный многоголосый [Лицензия]
    Продолжительность: 01:40:10
  • Притворись моим мужем / You May Not Kiss the Bride (2012) BDRip-AVC | Лицензия Притворись моим мужем / You May Not Kiss the Bride (2012) BDRip-AVC | Лицензия Притворись моим мужем / You May Not Kiss the Bride (2012) BDRip-AVC | Лицензия
  • Общее
    Уникальный идентификатор : 226046422329149440388226405439936956586 (0xAA0EF51572DE3A15B0EEFB93023888AA)
    Полное имя : D:You May Not Kiss the Bride.2012.BDRip-AVC.PT.mkv
    Формат : Matroska
    Версия формата : Version 2
    Размер файла : 1,37 Гбайт
    Продолжительность : 1 ч. 40 м.
    Общий поток : 1955 Кбит/сек
    Название фильма : Притворись моим мужем / You May Not Kiss the Bride (2012) BDRip-AVC rip by rulya74
    Дата кодирования : UTC 2012-07-18 03:42:53
    Программа кодирования : mkvmerge v5.7.0 ('The Whirlwind') built on Jul 8 2012 20:08:51
    Библиотека кодирования : libebml v1.2.3 + libmatroska v1.3.0

    Видео
    Идентификатор : 1
    Формат : AVC
    Формат/Информация : Advanced Video Codec
    Профиль формата : High@L4.1
    Параметр CABAC формата : Да
    Параметр ReFrames формата : 9 кадров
    Идентификатор кодека : V_MPEG4/ISO/AVC
    Продолжительность : 1 ч. 40 м.
    Битрейт : 1570 Кбит/сек
    Ширина : 1024 пикселя
    Высота : 576 пикселей
    Соотношение сторон : 16:9
    Частота кадров : 24,000 кадра/сек
    Цветовое пространство : YUV
    Субдискретизация насыщенности : 4:2:0
    Битовая глубина : 8 бит
    Тип развёртки : Прогрессивная
    Бит/(Пиксели*Кадры) : 0.111
    Размер потока : 1,07 Гбайт (78%)
    Библиотека кодирования : x264 core 125 r2200 999b753
    Настройки программы : cabac=1 / ref=9 / deblock=1:-2:-3 / analyse=0x3:0x113 / me=umh / subme=9 / psy=1 / psy_rd=1.00:0.00 / mixed_ref=1 / me_range=36 / chroma_me=1 / trellis=2 / 8x8dct=1 / cqm=0 / deadzone=21,11 / fast_pskip=1 / chroma_qp_offset=-2 / threads=16 / lookahead_threads=2 / sliced_threads=0 / nr=0 / decimate=1 / interlaced=0 / bluray_compat=0 / constrained_intra=0 / bframes=9 / b_pyramid=2 / b_adapt=1 / b_bias=0 / direct=3 / weightb=1 / open_gop=0 / weightp=2 / keyint=240 / keyint_min=24 / scenecut=40 / intra_refresh=0 / rc=2pass / mbtree=0 / bitrate=1570 / ratetol=1.0 / qcomp=0.60 / qpmin=10 / qpmax=51 / qpstep=4 / cplxblur=20.0 / qblur=0.5 / ip_ratio=1.40 / pb_ratio=1.30 / aq=1:1.00
    Default : Да
    Forced : Нет

    Аудио
    Идентификатор : 2
    Формат : AC-3
    Формат/Информация : Audio Coding 3
    Расширение режима : CM (complete main)
    Идентификатор кодека : A_AC3
    Продолжительность : 1 ч. 40 м.
    Вид битрейта : Постоянный
    Битрейт : 384 Кбит/сек
    Каналы : 6 каналов
    Расположение каналов : Front: L C R, Side: L R, LFE
    Частота : 48,0 КГц
    Битовая глубина : 16 бит
    Метод сжатия : С потерями
    Размер потока : 275 Мбайт (20%)
    Заголовок : ногоголосый закадровый [R5]
    Язык : Russian
    Default : Да
    Forced : Нет
10.0 из 10
голосов: 2
/10
/10
grab777 25-10-2015, 15:05
Информация
Посетители, находящиеся в группе Гости, не могут оставлять комментарии к данной публикации.