Панель пользователя
Регистрация

Воспользуйтесь социальными сетями для входа на https://freerutor.com

vk odnoklassniki facebook mailru yandex google
Популярное
Счетчик
Голосуй за нас
VIP на сайте
Популярное
Товары интернет магазина
загрузка...

Хранитель луны / Mune, le gardien de la lune (2014) BDRip-AVC | Лицензия

Хранитель луны / Mune, le gardien de la lune (2014) BDRip-AVC | Лицензия
Участники торрент обмена
Сидов Пиров Скачали
6 0 3988
Характеристика
Размер Файлы
1.79 GB
Релиз группа
Поделиться раздачей
Мультфильмы
Название: Хранитель луны
Оригинальное название: Mune, le gardien de la lune
Жанр: Мультфильм, семейный, приключения
Выпущено: Франция / Orange Studio, KinoLogy, Onyx Films
Режиссер: Александр Эбоян, Бенуа Филиппон
В ролях: Омар Си, Изиа Ижлен, Майкл Грегорио, Шафик Ахмад, Бенуа Аллемане, Шеннон Арчи, Федор Аткин, Джошуа Дж. Баллард, Дэмиен Буассо, Эммануэль Кюртиль
Краткое описание: На диковинной планете, где смена дня и ночи осуществляется вручную, юного фавна Мьюна неожиданно избирают хранителем Луны. Но к своему ужасу, он почти сразу теряет ее! Воспользовавшись этим, царь подземного мира Некрос крадет и гасит Солнце. Теперь, чтобы спасти планету, Мьюн вместе с отважной девочкой из воска Глим и заносчивым Сохоном, хранителем Солнца, должны отправиться в удивительное и опасное путешествие.
  • Видео: MPEG-4 AVC, 2700 Кбит/с, 1024x428
    Аудио: Русский (AC3, 6 ch, 448 Кбит/с)
    Перевод: Дублированный [Лицензия]
    Продолжительность: 01:21:27
  • Хранитель луны / Mune, le gardien de la lune (2014) BDRip-AVC | Лицензия Хранитель луны / Mune, le gardien de la lune (2014) BDRip-AVC | Лицензия Хранитель луны / Mune, le gardien de la lune (2014) BDRip-AVC | Лицензия
  • General
    Unique ID : 223074377410998405493785068694497067684 (0xA7D28FF4BCA2F0DB91CB678D787B02A4)
    Complete name : C:\XpaHUteL.LyHbI.2014.BDRip-AVC.ExKinoRay.mkv
    Format : Matroska
    Format version : Version 4 / Version 2
    File size : 1.79 GiB
    Duration : 1h 21mn
    Overall bit rate : 3 142 Kbps
    Encoded date : UTC 2015-10-29 17:33:11
    Writing application : mkvmerge v7.2.0 ('On Every Street') 32bit built on Sep 13 2014 15:42:11
    Writing library : libebml v1.3.0 + libmatroska v1.4.1

    Video
    ID : 1
    Format : AVC
    Format/Info : Advanced Video Codec
    Format profile : High@L4.1
    Format settings, CABAC : Yes
    Format settings, ReFrames : 8 frames
    Codec ID : V_MPEG4/ISO/AVC
    Duration : 1h 21mn
    Bit rate : 2 700 Kbps
    Width : 1 024 pixels
    Height : 428 pixels
    Display aspect ratio : 2.40:1
    Frame rate mode : Constant
    Frame rate : 25.000 fps
    Color space : YUV
    Chroma subsampling : 4:2:0
    Bit depth : 8 bits
    Scan type : Progressive
    Bits/(Pixel*Frame) : 0.246
    Stream size : 1.50 GiB (84%)
    Writing library : x264 core 142 r2431 ac76440
    Encoding settings : cabac=1 / ref=8 / deblock=1:-3:-3 / analyse=0x3:0x133 / me=umh / subme=9 / psy=1 / psy_rd=1.00:0.10 / mixed_ref=1 / me_range=48 / chroma_me=1 / trellis=2 / 8x8dct=1 / cqm=0 / deadzone=21,11 / fast_pskip=0 / chroma_qp_offset=-3 / threads=4 / lookahead_threads=1 / sliced_threads=0 / nr=0 / decimate=1 / interlaced=0 / bluray_compat=0 / constrained_intra=0 / bframes=16 / b_pyramid=2 / b_adapt=1 / b_bias=0 / direct=3 / weightb=1 / open_gop=0 / weightp=2 / keyint=250 / keyint_min=25 / scenecut=40 / intra_refresh=0 / rc_lookahead=40 / rc=2pass / mbtree=1 / bitrate=2700 / ratetol=1.0 / qcomp=0.60 / qpmin=0 / qpmax=69 / qpstep=4 / cplxblur=20.0 / qblur=0.5 / vbv_maxrate=62500 / vbv_bufsize=78125 / nal_hrd=none / filler=0 / ip_ratio=1.40 / aq=1:1.00
    Default : Yes
    Forced : No

    Audio
    ID : 2
    Format : AC-3
    Format/Info : Audio Coding 3
    Mode extension : CM (complete main)
    Format settings, Endianness : Big
    Codec ID : A_AC3
    Duration : 1h 21mn
    Bit rate mode : Constant
    Bit rate : 448 Kbps
    Channel(s) : 6 channels
    Channel positions : Front: L C R, Side: L R, LFE
    Sampling rate : 48.0 KHz
    Bit depth : 16 bits
    Compression mode : Lossy
    Stream size : 261 MiB (14%)
    Default : Yes
    Forced : No
6.0 из 10
голосов: 4
/10
/10
Раздачу отредактировал: grab777 - 30-10-2015, 12:07
По причине: (Замена WEB-DLRip-AVC на BDRip-AVC)
6arbo 30-10-2015, 12:07
Информация
Посетители, находящиеся в группе Гости, не могут оставлять комментарии к данной публикации.