Панель пользователя
Регистрация

Воспользуйтесь социальными сетями для входа на https://freerutor.com

vk odnoklassniki facebook mailru yandex google
Популярное
Счетчик
Голосуй за нас
VIP на сайте
Популярное
Товары интернет магазина
загрузка...

Каникулы / Vacation (2015) HDRip-AVC | Лицензия

Каникулы / Vacation (2015) HDRip-AVC | Лицензия
Участники торрент обмена
Сидов Пиров Скачали
1 0 627
Характеристика
Размер Файлы
1.70 GB
Релиз группа
Поделиться раздачей
Фильмы (AVC)
Название: Каникулы
Оригинальное название: Vacation
Жанр: Комедия, приключения
Выпущено: США / Warner Bros Pictures, New Line Cinema, Ratpac Entertainment
Режиссер: Джон Фрэнсис Дейли, Джонатан М. Голдштейн
В ролях: Эд Хелмс, Кристина Эпплгейт, Скайлер Джизондо, Стил Стеббинс, Крис Хемсворт, Лесли Манн, Чеви Чейз, Беверли Д’Анджело, Чарли Дэй, Катрин Миссал
Краткое описание: Расти Гризвольд — молодой отец и примерный семьянин, который очень хочет сплотить семью и воссоздать каникулы из своего детства. Вместе с супругой и двумя сыновьями он решает совершить незабываемое путешествие через всю страну, конечной целью которого станет самый лучший тематический парк Америки. Все тщательно спланировав, они отправляются в дорогу, надеясь, что их ждет очень веселое и увлекательное путешествие. В начале пути все происходит как нельзя лучше, но чем дальше они отдаляются от дома, тем больше проблем их ждет впереди. Все пошло совсем не так, как планировал Расти, но он не собирается останавливаться и готов сделать все возможное для того, чтобы добраться до пункта назначения и подарить своей семье лучшие каникулы…
  • Видео: MPEG-4 AVC, 1690 Кбит/с, 1024x428
    Аудио: Русский (AC3, 6 ch, 384 Кбит/с)
    Перевод: Дублированный [iTunes]
    Субтитры: Английские
    Продолжительность: 01:39:02
  • Каникулы / Vacation (2015) HDRip-AVC | Лицензия Каникулы / Vacation (2015) HDRip-AVC | Лицензия Каникулы / Vacation (2015) HDRip-AVC | Лицензия
  • General
    Unique ID : 251749013661604429679302179769351633017 (0xBD6518ACE3B27C16A4415DBF62DF7879)
    Complete name : D:\K4H1KyL1.2015.D.HDRip.mkv
    Format : Matroska
    Format version : Version 1
    File size : 1.70 GiB
    Duration : 1h 39mn
    Overall bit rate : 2 461 Kbps
    Movie name : Vacation.2015.x264.WEB-DLRip.AVC.Rus.Ukr.Eng
    Encoded date : UTC 2015-10-23 22:46:12
    Writing application : mkvmerge v2.3.0 ('Freak U') built on Sep 8 2008 18:32:16
    Writing library : libebml v0.7.7 + libmatroska v0.8.1
    DURATION : 01:31:56.110000000
    NUMBER_OF_FRAMES : 2019
    NUMBER_OF_BYTES : 82366
    _STATISTICS_WRITING_APP : mkvmerge v7.1.0 ('Good Love') 64bit built on Jul 27 2014 13:06:55
    _STATISTICS_WRITING_DATE_UT : 2015-10-14 09:41:54
    _STATISTICS_TAGS : BPS DURATION NUMBER_OF_FRAMES NUMBER_OF_BYTES

    Video
    ID : 1
    Format : AVC
    Format/Info : Advanced Video Codec
    Format profile : High@L4.1
    Format settings, CABAC : Yes
    Format settings, ReFrames : 10 frames
    Codec ID : V_MPEG4/ISO/AVC
    Duration : 1h 39mn
    Bit rate : 1 690 Kbps
    Width : 1 024 pixels
    Height : 428 pixels
    Display aspect ratio : 2.40:1
    Frame rate mode : Constant
    Frame rate : 23.976 fps
    Color space : YUV
    Chroma subsampling : 4:2:0
    Bit depth : 8 bits
    Scan type : Progressive
    Bits/(Pixel*Frame) : 0.161
    Stream size : 1.14 GiB (67%)
    Writing library : x264 core 146 r2538 121396c
    Encoding settings : cabac=1 / ref=10 / deblock=1:-3:-3 / analyse=0x3:0x133 / me=umh / subme=10 / psy=1 / psy_rd=1.00:0.15 / mixed_ref=1 / me_range=32 / chroma_me=1 / trellis=2 / 8x8dct=1 / cqm=0 / deadzone=21,11 / fast_pskip=0 / chroma_qp_offset=-3 / threads=12 / lookahead_threads=1 / sliced_threads=0 / nr=0 / decimate=0 / interlaced=0 / bluray_compat=0 / constrained_intra=0 / bframes=6 / b_pyramid=2 / b_adapt=2 / b_bias=0 / direct=3 / weightb=1 / open_gop=0 / weightp=2 / keyint=240 / keyint_min=23 / scenecut=40 / intra_refresh=0 / rc=2pass / mbtree=0 / bitrate=1690 / ratetol=1.0 / qcomp=0.60 / qpmin=10 / qpmax=50 / qpstep=4 / cplxblur=20.0 / qblur=0.5 / ip_ratio=1.40 / pb_ratio=1.30 / aq=1:1.00
    Default : Yes
    Forced : No

    Audio #1
    ID : 2
    Format : AC-3
    Format/Info : Audio Coding 3
    Mode extension : CM (complete main)
    Format settings, Endianness : Big
    Codec ID : A_AC3
    Duration : 1h 39mn
    Bit rate mode : Constant
    Bit rate : 384 Kbps
    Channel(s) : 6 channels
    Channel positions : Front: L C R, Side: L R, LFE
    Sampling rate : 48.0 KHz
    Compression mode : Lossy
    Stream size : 272 MiB (16%)
    Title : Dub
    Language : Russian
    Default : Yes
    Forced : No

    Audio #2
    ID : 3
    Format : AC-3
    Format/Info : Audio Coding 3
    Mode extension : CM (complete main)
    Format settings, Endianness : Big
    Codec ID : A_AC3
    Duration : 1h 39mn
    Bit rate mode : Constant
    Bit rate : 384 Kbps
    Channel(s) : 6 channels
    Channel positions : Front: L C R, Side: L R, LFE
    Sampling rate : 48.0 KHz
    Compression mode : Lossy
    Stream size : 272 MiB (16%)
    Title : Оригинал
    Language : English
    Default : No
    Forced : No

    Text
    ID : 4
    Format : UTF-8
    Codec ID : S_TEXT/UTF8
    Codec ID/Info : UTF-8 Plain Text
    Title : sub
    Language : English
    Default : Yes
    Forced : No

    Menu
    00:00:00.000 : en:1
    00:12:57.000 : en:2
    00:20:55.000 : en:3
    00:29:27.000 : en:4
    00:40:54.000 : en:5
    00:47:55.000 : en:6
    01:00:23.000 : en:7
    01:09:41.000 : en:8
    01:20:52.000 : en:9
    01:28:00.000 : en:10
    01:34:51.000 : en:11
8.2 из 10
голосов: 5
/10
/10
Раздачу отредактировал: grab777 - 30-10-2015, 20:50
По причине: (Замена WEB-DLRip-AVC на BDRip-AVC)
foster720p 30-10-2015, 20:44
Информация
Посетители, находящиеся в группе Гости, не могут оставлять комментарии к данной публикации.