Панель пользователя
Регистрация

Воспользуйтесь социальными сетями для входа на https://freerutor.com

vk odnoklassniki facebook mailru yandex google
Популярное
Счетчик
Голосуй за нас
VIP на сайте
Популярное
Товары интернет магазина
загрузка...

Головоломка / Inside Out (2015) BDRip-AVC | Лицензия

Головоломка / Inside Out (2015) BDRip-AVC | Лицензия
Участники торрент обмена
Сидов Пиров Скачали
153 3 228187
Характеристика
Размер Файлы
2.30 GB
Релиз группа
Поделиться раздачей
Мультфильмы
Название: Головоломка
Оригинальное название: Inside Out
Жанр: Мультфильм, семейный, комедия
Выпущено: США / Pixar Animation Studios, Walt Disney Pictures
Режиссер: Пит Доктер, Роналдо Дель Кармен
В ролях: Эми Полер, Филлис Смит, Ричард Кайнд, Билл Хейдер, Льюис Блэк, Минди Кейлинг, Кейтлин Диас, Дайан Лэйн, Кайл МакЛоклен, Пола Паундстон, Бобби Мойнахан, Паула Пелл, Дэйв Гольц, Фрэнк Оз, Джош Кули, Фли, Джон Ратценбергер, Карлос Аласраки, Питер Сэгал, Рашида Джонс
Краткое описание: Райли — обычная 11-летняя школьница, и, как у каждого из нас, ее поведение определяют пять базовых эмоций: Радость, Печаль, Страх, Гнев и Брезгливость. Эмоции живут в сознании девочки и каждый день помогают ей справляться с проблемами, руководя всеми ее поступками. До поры до времени эмоции живут дружно, но вдруг оказывается, что Райли и ее родителям предстоит переезд из небольшого уютного городка в шумный и людный мегаполис. Каждая из эмоций считает, что именно она лучше прочих знает, что нужно делать в этой непростой ситуации, и в голове у девочки наступает полная неразбериха. Чтобы наладить жизнь в большом городе, освоиться в новой школе и подружиться с одноклассниками, эмоциям Райли предстоит снова научиться работать сообща.
  • Видео: MPEG-4 AVC, 2260 Кбит/с, 1024x576
    Аудио: Русский, украинский (AC3, 6 ch, 384 Кбит/с), английский (AC3, 6 ch, 448 Кбит/с)
    Перевод: Дублированный (iTunes)
    Субтитры: Русские, английские
    Продолжительность: 01:34:50
  • Головоломка / Inside Out (2015) BDRip-AVC | Лицензия Головоломка / Inside Out (2015) BDRip-AVC | Лицензия Головоломка / Inside Out (2015) BDRip-AVC | Лицензия
  • Complete name : Golovolomka.2015.x264.BDRip.(AVC)-MediaClub.mkv
    Format : Matroska
    Format version : Version 4 / Version 2
    File size : 2.30 GiB
    Duration : 1h 34mn
    Overall bit rate : 3 478 Kbps
    Movie name : = MediaClub = rip by Painter
    Encoded date : UTC 2015-10-21 08:07:36
    Writing application : mkvmerge v7.8.0 ('River Man') 32bit built on Mar 27 2015 16:18:02
    Writing library : libebml v1.3.1 + libmatroska v1.4.2
    DURATION : 01:26:48.579000000
    NUMBER_OF_FRAMES : 1364
    NUMBER_OF_BYTES : 48543
    _STATISTICS_WRITING_APP : mkvmerge v7.8.0 ('River Man') 32bit built on Mar 27 2015 16:18:02
    _STATISTICS_WRITING_DATE_UTC : 2015-10-21 08:07:36
    _STATISTICS_TAGS : BPS DURATION NUMBER_OF_FRAMES NUMBER_OF_BYTES

    Video
    ID : 1
    Format : AVC
    Format/Info : Advanced Video Codec
    Format profile : High@L4.1
    Format settings, CABAC : Yes
    Format settings, ReFrames : 10 frames
    Codec ID : V_MPEG4/ISO/AVC
    Duration : 1h 34mn
    Bit rate : 2 260 Kbps
    Width : 1 024 pixels
    Height : 576 pixels
    Display aspect ratio : 16:9
    Frame rate mode : Constant
    Frame rate : 23.976 fps
    Color space : YUV
    Chroma subsampling : 4:2:0
    Bit depth : 8 bits
    Scan type : Progressive
    Bits/(Pixel*Frame) : 0.160
    Stream size : 1.45 GiB (63%)
    Writing library : x264 core 144 r2525 40bb568
    Encoding settings : cabac=1 / ref=10 / deblock=1:-3:-3 / analyse=0x3:0x133 / me=umh / subme=11 / psy=1 / psy_rd=1.05:0.20 / mixed_ref=1 / me_range=32 / chroma_me=1 / trellis=2 / 8x8dct=1 / cqm=0 / deadzone=21,11 / fast_pskip=0 / chroma_qp_offset=-3 / threads=6 / lookahead_threads=1 / sliced_threads=0 / nr=0 / decimate=0 / interlaced=0 / bluray_compat=0 / constrained_intra=0 / bframes=8 / b_pyramid=2 / b_adapt=2 / b_bias=0 / direct=3 / weightb=1 / open_gop=0 / weightp=2 / keyint=240 / keyint_min=23 / scenecut=40 / intra_refresh=0 / rc=2pass / mbtree=0 / bitrate=2260 / ratetol=1.0 / qcomp=0.60 / qpmin=0 / qpmax=69 / qpstep=4 / cplxblur=20.0 / qblur=0.5 / ip_ratio=1.40 / pb_ratio=1.30 / aq=3:1.00
    Language : English
    Default : Yes
    Forced : No
    DURATION : 01:34:51.237000000
    NUMBER_OF_FRAMES : 136453
    NUMBER_OF_BYTES : 1607910871
    _STATISTICS_WRITING_APP : mkvmerge v7.8.0 ('River Man') 32bit built on Mar 27 2015 16:18:02
    _STATISTICS_WRITING_DATE_UTC : 2015-10-21 08:07:36
    _STATISTICS_TAGS : BPS DURATION NUMBER_OF_FRAMES NUMBER_OF_BYTES

    Audio #1
    ID : 2
    Format : AC-3
    Format/Info : Audio Coding 3
    Mode extension : CM (complete main)
    Format settings, Endianness : Big
    Codec ID : A_AC3
    Duration : 1h 34mn
    Bit rate mode : Constant
    Bit rate : 384 Kbps
    Channel(s) : 6 channels
    Channel positions : Front: L C R, Side: L R, LFE
    Sampling rate : 48.0 KHz
    Bit depth : 16 bits
    Compression mode : Lossy
    Stream size : 261 MiB (11%)
    Language : Russian
    Default : Yes
    Forced : No

    Audio #2
    ID : 3
    Format : AC-3
    Format/Info : Audio Coding 3
    Mode extension : CM (complete main)
    Format settings, Endianness : Big
    Codec ID : A_AC3
    Duration : 1h 34mn
    Bit rate mode : Constant
    Bit rate : 384 Kbps
    Channel(s) : 6 channels
    Channel positions : Front: L C R, Side: L R, LFE
    Sampling rate : 48.0 KHz
    Bit depth : 16 bits
    Compression mode : Lossy
    Stream size : 261 MiB (11%)
    Language : Ukrainian
    Default : No
    Forced : No

    Audio #3
    ID : 4
    Format : AC-3
    Format/Info : Audio Coding 3
    Mode extension : CM (complete main)
    Format settings, Endianness : Big
    Codec ID : A_AC3
    Duration : 1h 34mn
    Bit rate mode : Constant
    Bit rate : 448 Kbps
    Channel(s) : 6 channels
    Channel positions : Front: L C R, Side: L R, LFE
    Sampling rate : 48.0 KHz
    Bit depth : 16 bits
    Compression mode : Lossy
    Stream size : 304 MiB (13%)
    Language : English
    Default : No
    Forced : No

    Text #1
    ID : 5
    Format : UTF-8
    Codec ID : S_TEXT/UTF8
    Codec ID/Info : UTF-8 Plain Text
    Language : Russian
    Default : No
    Forced : No

    Text #2
    ID : 6
    Format : UTF-8
    Codec ID : S_TEXT/UTF8
    Codec ID/Info : UTF-8 Plain Text
    Language : English
    Default : No
    Forced : No

    Menu
    00:00:00.000 : :Chapter 01
    00:07:22.692 : :Chapter 02
    00:11:36.779 : :Chapter 03
    00:15:46.403 : :Chapter 04
    00:20:02.242 : :Chapter 05
    00:25:21.436 : :Chapter 06
    00:26:47.063 : :Chapter 07
    00:30:10.183 : :Chapter 08
    00:34:45.792 : :Chapter 09
    00:36:02.285 : :Chapter 10
    00:37:45.304 : :Chapter 11
    00:41:27.359 : :Chapter 12
    00:43:35.613 : :Chapter 13
    00:45:19.508 : :Chapter 14
    00:46:51.850 : :Chapter 15
    00:50:02.457 : :Chapter 16
    00:51:34.341 : :Chapter 17
    00:56:12.160 : :Chapter 18
    01:00:03.683 : :Chapter 19
    01:01:17.840 : :Chapter 20
    01:03:50.368 : :Chapter 21
    01:06:27.191 : :Chapter 22
    01:11:15.771 : :Chapter 23
    01:13:40.541 : :Chapter 24
    01:15:38.659 : :Chapter 25
    01:20:00.337 : :Chapter 26
    01:23:57.198 : :Chapter 27
    01:26:18.339 : :Chapter 28
    01:34:37.588 : :Chapter 29
7.5 из 10
голосов: 10
/10
/10
grab777 24-10-2015, 16:12
Информация
Посетители, находящиеся в группе Гости, не могут оставлять комментарии к данной публикации.