Панель пользователя
Регистрация

Воспользуйтесь социальными сетями для входа на https://freerutor.com

vk odnoklassniki facebook mailru yandex google
Популярное
Счетчик
Голосуй за нас
VIP на сайте
Популярное
Товары интернет магазина
загрузка...

Экзорцизм Молли Хартли (2015) BDRip 720p

Экзорцизм Молли Хартли  (2015) BDRip 720p
Участники торрент обмена
Сидов Пиров Скачали
4 0 871
Характеристика
Размер Файлы
6.33 GB
Поделиться раздачей
Фильмы (720,1080,Blu-Ray)
Наименование: Экзорцизм Молли Хартли
Оригинальное наименование: The Exorcism of Molly Hartley
Произведено: США
Категория: ужасы
Режиссер постановщик: Стивен Р. Монро
В главных ролях: Сара Линд, Девон Сава, Джина Холден, Питер МакНейл, Дайна Лайтолд, Джулия Аркос, Том МакЛарен, Брэдли Савацки, Стив Уэллер, Эрнесто Гриффит
Краткое описание: Молли Хартли выросла, но демон по-прежнему живёт внутри неё. Девушка узнаёт, что по тайному договору её душа принадлежит дьяволу. Спустя шесть лет после окончания школы её обвиняют в убийстве и отправляют в психиатрическую больницу, где она своей силой причиняет вред пациентам и персоналу. Её единственная надежда — обряд экзорцизма, который может провести лишённый сана священник, желающий спасти Молли.
  • Видео данные: MPEG-4 AVC, 7590 kb/s, 1280x720
    Аудио данные: Russian: AC3, 192 kb/s (2 ch) / English: DTS, 1510 kb/s (6 ch)
    Перевод: Дублированный [SDI Media] | Любительский двухголосый [2D] (den904&DeadSno)
    Субтитры: Английские
    Продолжительность: 01:35:41
  • Экзорцизм Молли Хартли  (2015) BDRip 720p Экзорцизм Молли Хартли  (2015) BDRip 720p Экзорцизм Молли Хартли  (2015) BDRip 720p
  • Общее
    Уникальный идентификатор : 233203054018045066415968410323692364342 (0xAF714644B00B51DF988BA643D9DD2236)
    Полное имя : D:\загрузки\The.Exorcism.of.Molly.Hartley.2015.D.L2.720p.BluRay.mkv
    Формат : Matroska
    Версия формата : Version 4 / Version 2
    Размер файла : 6,33 Гбайт
    Продолжительность : 1 ч. 35 м.
    Общий поток : 9475 Кбит/сек
    Дата кодирования : UTC 2016-07-21 12:01:14
    Программа кодирования : mkvmerge v8.3.0 ('Over the Horizon') 64bit
    Библиотека кодирования : libebml v1.3.1 + libmatroska v1.4.2

    Видео
    Идентификатор : 1
    Формат : AVC
    Формат/Информация : Advanced Video Codec
    Профиль формата : High@L4.1
    Параметр CABAC формата : Да
    Параметр ReFrames формата : 8 кадров
    Идентификатор кодека : V_MPEG4/ISO/AVC
    Продолжительность : 1 ч. 35 м.
    Битрейт : 7590 Кбит/сек
    Ширина : 1280 пикселей
    Высота : 720 пикселей
    Соотношение сторон : 16:9
    Режим частоты кадров : Постоянный
    Частота кадров : 23,976 кадра/сек
    Цветовое пространство : YUV
    Субдискретизация насыщенности : 4:2:0
    Битовая глубина : 8 бит
    Тип развёртки : Прогрессивная
    Бит/(Пиксели*Кадры) : 0.343
    Размер потока : 4,94 Гбайт (78%)
    Библиотека кодирования : x264 core 142 r2431 ac76440
    Настройки программы : cabac=1 / ref=8 / deblock=1:-1:-1 / analyse=0x3:0x133 / me=umh / subme=10 / psy=1 / psy_rd=1.00:1.00 / mixed_ref=1 / me_range=48 / chroma_me=1 / trellis=2 / 8x8dct=1 / cqm=0 / deadzone=21,11 / fast_pskip=1 / chroma_qp_offset=-4 / threads=16 / lookahead_threads=2 / sliced_threads=0 / nr=0 / decimate=1 / interlaced=0 / bluray_compat=0 / constrained_intra=0 / bframes=8 / b_pyramid=2 / b_adapt=2 / b_bias=0 / direct=3 / weightb=0 / open_gop=0 / weightp=2 / keyint=240 / keyint_min=23 / scenecut=40 / intra_refresh=0 / rc_lookahead=60 / rc=2pass / mbtree=1 / bitrate=7590 / ratetol=1.0 / qcomp=0.60 / qpmin=0 / qpmax=69 / qpstep=4 / cplxblur=20.0 / qblur=0.5 / vbv_maxrate=62500 / vbv_bufsize=78125 / nal_hrd=none / filler=0 / ip_ratio=1.40 / aq=1:1.00
    Язык : English
    Default : Да
    Forced : Нет
    Коэффициенты матрицы : BT.709

    Аудио #1
    Идентификатор : 2
    Формат : AC-3
    Формат/Информация : Audio Coding 3
    Расширение режима : CM (complete main)
    Параметр Endianness формата : Big
    Идентификатор кодека : A_AC3
    Продолжительность : 1 ч. 35 м.
    Вид битрейта : Постоянный
    Битрейт : 192 Кбит/сек
    Каналы : 2 канала
    Расположение каналов : Front: L R
    Частота : 48,0 КГц
    Битовая глубина : 16 бит
    Метод сжатия : С потерями
    Размер потока : 131 Мбайт (2%)
    Заголовок : DUB (SDI Media)
    Язык : Russian
    Default : Да
    Forced : Нет

    Аудио #2
    Идентификатор : 3
    Формат : AC-3
    Формат/Информация : Audio Coding 3
    Расширение режима : CM (complete main)
    Параметр Endianness формата : Big
    Идентификатор кодека : A_AC3
    Продолжительность : 1 ч. 35 м.
    Вид битрейта : Постоянный
    Битрейт : 192 Кбит/сек
    Каналы : 2 канала
    Расположение каналов : Front: L R
    Частота : 48,0 КГц
    Битовая глубина : 16 бит
    Метод сжатия : С потерями
    Размер потока : 131 Мбайт (2%)
    Заголовок : L2.den904&DeadSno
    Язык : Russian
    Default : Нет
    Forced : Нет

    Аудио #3
    Идентификатор : 4
    Формат : DTS
    Формат/Информация : Digital Theater Systems
    Режим : 16
    Параметр Endianness формата : Big
    Идентификатор кодека : A_DTS
    Продолжительность : 1 ч. 35 м.
    Вид битрейта : Постоянный
    Битрейт : 1509 Кбит/сек
    Каналы : 6 каналов
    Расположение каналов : Front: L C R, Side: L R, LFE
    Частота : 48,0 КГц
    Битовая глубина : 24 бит
    Метод сжатия : С потерями
    Размер потока : 1,01 Гбайт (16%)
    Язык : English
    Default : Нет
    Forced : Нет

    Текст
    Идентификатор : 5
    Формат : UTF-8
    Идентификатор кодека : S_TEXT/UTF8
    Идентификатор кодека/Информация : UTF-8 Plain Text
    Язык : English
    Default : Нет
    Forced : Нет

    Меню
    00:00:00.000 : en:Chapter 01
    00:06:36.938 : en:Chapter 03
    00:09:32.113 : en:Chapter 05
    00:12:11.147 : en:Chapter 07
    00:15:37.478 : en:Chapter 09
    00:19:56.653 : en:Chapter 11
    00:24:00.605 : en:Chapter 13
    00:27:36.071 : en:Chapter 15
    00:30:22.111 : en:Chapter 17
    00:32:33.451 : en:Chapter 19
    00:36:08.666 : en:Chapter 21
    00:40:37.101 : en:Chapter 23
    00:42:35.511 : en:Chapter 25
    00:44:12.816 : en:Chapter 27
    00:47:24.216 : en:Chapter 29
    00:51:59.658 : en:Chapter 31
    00:55:04.259 : en:Chapter 33
    00:59:51.087 : en:Chapter 35
    01:04:09.929 : en:Chapter 37
    01:09:42.636 : en:Chapter 39
    01:12:42.024 : en:Chapter 41
    01:16:47.436 : en:Chapter 43
    01:18:51.309 : en:Chapter 45
    01:22:51.841 : en:Chapter 47
    01:24:46.748 : en:Chapter 49
    01:27:46.678 : en:Chapter 51
    01:30:48.734 : en:Chapter 53
    01:31:48.669 : en:Chapter 55
    01:35:40.484 : en:Chapter 57
7.3 из 10
голосов: 4
/10
/10
karta 21-07-2016, 15:15
Информация
Посетители, находящиеся в группе Гости, не могут оставлять комментарии к данной публикации.