Панель пользователя
Регистрация

Воспользуйтесь социальными сетями для входа на https://freerutor.com

vk odnoklassniki facebook mailru yandex google
Популярное
Счетчик
Голосуй за нас
VIP на сайте
Популярное
Товары интернет магазина
загрузка...

Любовь на четырех колесах (2015) HDTV 1080i

Любовь на четырех колесах (2015) HDTV 1080i
Участники торрент обмена
Сидов Пиров Скачали
1 0 136
Характеристика
Размер Файлы
5.61 GB
Поделиться раздачей
Фильмы (720,1080,Blu-Ray)
Оригинальное название: Любовь на четырех колесах
Жанр: Мелодрама
Выпущено: Россия / Русское
Режиссер: Сергей Влади
В ролях: Евгения Лоза, Виктор Логинов, Кирилл Жандаров, Светлана Колпакова, Александр Никольский, Екатерина Большакова
Краткое описание: Семейная жизнь Липы, работницы таксопарка, не задалась. Муж Костя давно потерял интерес к «рабочей пчелке» и почти не скрывает своих измен. Последней каплей становится известие о том, что любовница Кости ждет ребенка. Липа отпускает мужа и готовится начать новую жизнь. К несчастью, после развода Костя возвращается снова. Помыкавшись по съёмным квартирам, он намерен поселиться у Липы в квартире вместе со своей любовницей. Удастся ли доброй Липе противостоять людской подлости и отыскать своё заблудившееся счастье?
  • Видео: MPEG-4 AVC, 7863 Кбит/с, 1920x1080
    Аудио: MP2, 2 ch, 192 Кбит/с
    Перевод: Не требуется
    Продолжительность: 01:34:08
  • Любовь на четырех колесах (2015) HDTV 1080i Любовь на четырех колесах (2015) HDTV 1080i Любовь на четырех колесах (2015) HDTV 1080i
  • Общее
    Идентификатор : 1 (0x1)
    Полное имя : D:\Ljubov.na.chetyrekh.kolesakh.2015.HDTV.1080i.ts
    Формат : MPEG-TS
    Размер файла : 5,61 Гбайт
    Продолжительность : 1 ч. 34 м.
    Режим общего битрейта : Переменный
    Общий поток : 8476 Кбит/сек

    Видео
    Идентификатор : 2911 (0xB5F)
    Идентификатор меню : 1009 (0x3F1)
    Формат : AVC
    Формат/Информация : Advanced Video Codec
    Профиль формата : High@L4
    Параметр CABAC формата : Да
    Параметр ReFrames формата : 4 кадра
    Идентификатор кодека : 27
    Продолжительность : 1 ч. 34 м.
    Битрейт : 7863 Кбит/сек
    Ширина : 1920 пикселей
    Высота : 1080 пикселей
    Соотношение сторон : 16:9
    Частота кадров : 25,000 кадров/сек
    Цветовое пространство : YUV
    Субдискретизация насыщенности : 4:2:0
    Битовая глубина : 8 бит
    Тип развёртки : MBAFF
    Порядок развёртки : Верхнее поле первое
    Бит/(Пиксели*Кадры) : 0.152
    Размер потока : 5,21 Гбайт (93%)

    Аудио
    Идентификатор : 2912 (0xB60)
    Идентификатор меню : 1009 (0x3F1)
    Формат : MPEG Audio
    Версия формата : Version 1
    Профиль формата : Layer 2
    Идентификатор кодека : 3
    Продолжительность : 1 ч. 34 м.
    Вид битрейта : Постоянный
    Битрейт : 192 Кбит/сек
    Каналы : 2 канала
    Частота : 48,0 КГц
    Метод сжатия : С потерями
    Размер потока : 130 Мбайт (2%)
    Язык : Russian
8.7 из 10
голосов: 7
/10
/10
grab777 7-10-2015, 11:58
Информация
Посетители, находящиеся в группе Гости, не могут оставлять комментарии к данной публикации.