Панель пользователя
Регистрация

Воспользуйтесь социальными сетями для входа на https://freerutor.com

vk odnoklassniki facebook mailru yandex google
Популярное
Счетчик
Голосуй за нас
VIP на сайте
Популярное
Товары интернет магазина
загрузка...

Любовь на четырех колесах (2015) HDTVRip 720p

Любовь на четырех колесах (2015) HDTVRip 720p
Участники торрент обмена
Сидов Пиров Скачали
0 0 676
Характеристика
Размер Файлы
2.43 GB
Релиз группа
Поделиться раздачей
Фильмы (720,1080,Blu-Ray)
Оригинальное название: Любовь на четырех колесах
Жанр: Мелодрама
Выпущено: Россия / Русское
Режиссер: Сергей Влади
В ролях: Евгения Лоза, Виктор Логинов, Кирилл Жандаров, Светлана Колпакова, Александр Никольский, Екатерина Большакова
Краткое описание: Семейная жизнь Липы, работницы таксопарка, не задалась. Муж Костя давно потерял интерес к «рабочей пчелке» и почти не скрывает своих измен. Последней каплей становится известие о том, что любовница Кости ждет ребенка. Липа отпускает мужа и готовится начать новую жизнь. К несчастью, после развода Костя возвращается снова. Помыкавшись по съёмным квартирам, он намерен поселиться у Липы в квартире вместе со своей любовницей. Удастся ли доброй Липе противостоять людской подлости и отыскать своё заблудившееся счастье?
  • Видео: MPEG-4 AVC, 3669 Кбит/с, 1280х720
    Аудио: AC3, 2 ch, 192 Кбит/с
    Перевод: Не требуется
    Продолжительность: 01:34:08
  • Любовь на четырех колесах (2015) HDTVRip 720p Любовь на четырех колесах (2015) HDTVRip 720p Любовь на четырех колесах (2015) HDTVRip 720p
  • Общее
    Уникальный идентификатор : 191649473777433226854328598311760474248 (0x902E5895E83AA199BA81344F181EB088)
    Полное имя : F:\Фильмы торренты\Lyubov.na.chetyreh.kolesah.2015.HDTVRip.(720p).MediaClub.mkv
    Формат : Matroska
    Версия формата : Version 2
    Размер файла : 2,43 Гбайт
    Продолжительность : 1 ч. 34 м.
    Общий поток : 3669 Кбит/сек
    Дата кодирования : UTC 2015-10-04 01:45:57
    Программа кодирования : mkvmerge v7.8.0 ('River Man') 32bit built on Apr 3 2015 12:11:22
    Библиотека кодирования : libebml v1.3.1 + libmatroska v1.4.2

    Видео
    Идентификатор : 1
    Формат : AVC
    Формат/Информация : Advanced Video Codec
    Профиль формата : High@L4.1
    Параметр CABAC формата : Да
    Параметр ReFrames формата : 9 кадров
    Идентификатор кодека : V_MPEG4/ISO/AVC
    Продолжительность : 1 ч. 34 м.
    Битрейт : 3476 Кбит/сек
    Ширина : 1280 пикселей
    Высота : 720 пикселей
    Соотношение сторон : 16:9
    Режим частоты кадров : Постоянный
    Частота кадров : 25,000 кадров/сек
    Цветовое пространство : YUV
    Субдискретизация насыщенности : 4:2:0
    Битовая глубина : 8 бит
    Тип развёртки : Прогрессивная
    Бит/(Пиксели*Кадры) : 0.151
    Размер потока : 2,25 Гбайт (93%)
    Библиотека кодирования : x264 core 146 r2538 121396c
    Настройки программы : cabac=1 / ref=9 / deblock=1:-3:3 / analyse=0x3:0x113 / me=umh / subme=11 / psy=1 / psy_rd=1.00:0.20 / mixed_ref=1 / me_range=32 / chroma_me=1 / trellis=2 / 8x8dct=1 / cqm=0 / deadzone=21,11 / fast_pskip=0 / chroma_qp_offset=-3 / threads=12 / lookahead_threads=3 / sliced_threads=0 / nr=0 / decimate=0 / interlaced=0 / bluray_compat=0 / constrained_intra=0 / bframes=12 / b_pyramid=2 / b_adapt=2 / b_bias=0 / direct=1 / weightb=1 / open_gop=0 / weightp=2 / keyint=250 / keyint_min=25 / scenecut=40 / intra_refresh=0 / rc_lookahead=60 / rc=2pass / mbtree=0 / bitrate=3476 / ratetol=1.0 / qcomp=0.60 / qpmin=0 / qpmax=69 / qpstep=4 / cplxblur=20.0 / qblur=0.5 / vbv_maxrate=14000 / vbv_bufsize=14000 / nal_hrd=none / filler=0 / ip_ratio=1.40 / pb_ratio=1.30 / aq=3:0.80
    Default : Да
    Forced : Нет
    Основные цвета : BT.709
    Характеристики трансфера : BT.709
    Коэффициенты матрицы : BT.709

    Аудио
    Идентификатор : 2
    Формат : AC-3
    Формат/Информация : Audio Coding 3
    Расширение режима : CM (complete main)
    Параметр Endianness формата : Big
    Идентификатор кодека : A_AC3
    Продолжительность : 1 ч. 34 м.
    Вид битрейта : Постоянный
    Битрейт : 192 Кбит/сек
    Каналы : 2 канала
    Расположение каналов : Front: L R
    Частота : 48,0 КГц
    Битовая глубина : 16 бит
    Метод сжатия : С потерями
    Размер потока : 130 Мбайт (5%)
    Default : Да
    Forced : Нет
8.6 из 10
голосов: 7
/10
/10
grab777 7-10-2015, 11:51
Информация
Посетители, находящиеся в группе Гости, не могут оставлять комментарии к данной публикации.