Панель пользователя
Регистрация

Воспользуйтесь социальными сетями для входа на https://freerutor.com

vk odnoklassniki facebook mailru yandex google
Популярное
Счетчик
Голосуй за нас
VIP на сайте
Популярное
Товары интернет магазина
загрузка...

Непридуманная жизнь (1-16 серии из 16) (2015) HDTV 1080i

Непридуманная жизнь (1-16 серии из 16) (2015) HDTV 1080i
Участники торрент обмена
Сидов Пиров Скачали
0 0 301
Характеристика
Размер Файлы
42.88 GB
Релиз группа
Поделиться раздачей
Русские сериалы
Оригинальное название: Непридуманная жизнь
Жанр: Мелодрама, драма, биография
Выпущено: Россия / ВайТ Медиа
Режиссер: Фуад Шабанов
В ролях: Карина Андоленко, Нонна Гришаева, Андрей Чернышов, Станислав Бондаренко, Анна Банщикова, Людмила Свитова, Игорь Павлов, Дмитрий Исаев, Алексей Федькин, Анна Лапина, Юлия Горшенина
Краткое описание: Судьба главной героини Кати Трапезниковой плотно переплетена с историей нашей страны с 50-х годов прошлого века до конца 90-х. Катя пережила арест отца и его гибель в сталинских лагерях. Похоронила маму, не сумевшую пережить трагедию. Потом в жизнь Кати пришла любовь. Яркая. Красивая. А после — горькое разочарование в любимом человеке… Катя смогла найти себя в профессии, но и тут случилось страшное: по ложному обвинению героиня оказалась в колонии. Выдержать все испытания ей помогла новая любовь, которую Катя счастливо пронесла через всю свою оставшуюся жизнь.
  • Видео: MPEG-4 AVC, 8500 Кбит/с, 1920х1080
    Аудио: MP2, 2 ch, 192 Кбит/с
    Перевод: Не требуется
    Продолжительность: 16 x ~ 00:45:00
  • Непридуманная жизнь (1-16 серии из 16) (2015) HDTV 1080i Непридуманная жизнь (1-16 серии из 16) (2015) HDTV 1080i
  • Общее
    Идентификатор : 1 (0x1)
    Полное имя : F:\Фильмы торренты\Nepridumannaja.zhizn.2015.HDTV.(1080i).Mediaclub\Nepridumannaja.zhizn.(01.seriya.iz.16).2015.HDTV.(1080i).Mediaclub.ts
    Формат : MPEG-TS
    Размер файла : 2,66 Гбайт
    Продолжительность : 44 м.
    Режим общего битрейта : Переменный
    Общий поток : 8537 Кбит/сек

    Видео
    Идентификатор : 2911 (0xB5F)
    Идентификатор меню : 1009 (0x3F1)
    Формат : AVC
    Формат/Информация : Advanced Video Codec
    Профиль формата : High@L4.0
    Параметр CABAC формата : Да
    Параметр ReFrames формата : 4 кадра
    Идентификатор кодека : 27
    Продолжительность : 44 м.
    Битрейт : 7857 Кбит/сек
    Ширина : 1920 пикселей
    Высота : 1080 пикселей
    Соотношение сторон : 16:9
    Частота кадров : 25,000 кадров/сек
    Цветовое пространство : YUV
    Субдискретизация насыщенности : 4:2:0
    Битовая глубина : 8 бит
    Тип развёртки : MBAFF
    Бит/(Пиксели*Кадры) : 0.152
    Размер потока : 2,45 Гбайт (92%)

    Аудио
    Идентификатор : 2912 (0xB60)
    Идентификатор меню : 1009 (0x3F1)
    Формат : MPEG Audio
    Версия формата : Version 1
    Профиль формата : Layer 2
    Идентификатор кодека : 3
    Продолжительность : 44 м.
    Вид битрейта : Постоянный
    Битрейт : 256 Кбит/сек
    Каналы : 2 канала
    Частота : 48,0 КГц
    Метод сжатия : С потерями
    Задержка видео : -120 мс.
    Размер потока : 81,7 Мбайт (3%)
    Язык : Russian
10.0 из 10
голосов: 1
/10
/10
grab777 2-10-2015, 12:15
Информация
Посетители, находящиеся в группе Гости, не могут оставлять комментарии к данной публикации.