Панель пользователя
Регистрация

Воспользуйтесь социальными сетями для входа на https://freerutor.com

vk odnoklassniki facebook mailru yandex google
Популярное
Счетчик
Голосуй за нас
VIP на сайте
Популярное
Товары интернет магазина
загрузка...

Лила и Ева / Lila & Eve (2015) BDRip 1080p

Лила и Ева / Lila & Eve (2015) BDRip 1080p
Участники торрент обмена
Сидов Пиров Скачали
0 0 188
Характеристика
Размер Файлы
3.25 GB
Релиз группа
Поделиться раздачей
Фильмы (720,1080,Blu-Ray)
Название: Лила и Ева
Оригинальное название: Lila & Eve
Жанр: Триллер, драма
Выпущено: США / A+E Studios, ChickFlick Productions, JuVee Productions, Lifetime Films
Режиссер: Чарльз Стоун III
В ролях: Дженнифер Лопез, Виола Дэвис, Ши Уигхэм, Амл Амин, Андре Ройо, Крис Чок, Джулиус Теннон, Миколь Уайт, Йолонда Росс, Уилл Бриттейн
Краткое описание: Две обезумевшие матери, чьи дети были застрелены, объединяются чтобы отомстить убийцам после того, как понимают, что местные власти не в состоянии принять необходимые меры…
  • Видео: MPEG-4 AVC, 4500 Кбит/с, 1920x1040
    Аудио: Русский (AC3, 6 ch, 448 Кбит/с)
    Перевод: Любительский многоголосый [Victory-Films]
    Продолжительность: 01:33:57
  • Лила и Ева / Lila & Eve (2015) BDRip 1080p Лила и Ева / Lila & Eve (2015) BDRip 1080p Лила и Ева / Lila & Eve (2015) BDRip 1080p
  • General
    Unique ID : 246133529708066965042809319865632426747 (0xB92B97F0CFDDAAC89A0790D046380AFB)
    Complete name : D:\Lila.And.Eve.2015.1080p.BluRay.x264.AC3-Victory-Films.mkv
    Format : Matroska
    Format version : Version 4 / Version 2
    File size : 3.25 GiB
    Duration : 1h 33mn
    Overall bit rate : 4 948 Kbps
    Encoded date : UTC 2015-09-24 23:58:04
    Writing application : mkvmerge v7.2.0 ('On Every Street') 64bit built on Sep 13 2014 15:52:10
    Writing library : libebml v1.3.0 + libmatroska v1.4.1
    DURATION : 01:33:57.184000000
    NUMBER_OF_FRAMES : 176162
    NUMBER_OF_BYTES : 315682304
    _STATISTICS_WRITING_APP : mkvmerge v7.2.0 ('On Every Street') 64bit built on Sep 13 2014 15:52:10
    _STATISTICS_WRITING_DATE_UT : 2015-09-24 23:58:04
    _STATISTICS_TAGS : BPS DURATION NUMBER_OF_FRAMES NUMBER_OF_BYTES

    Video
    ID : 1
    Format : AVC
    Format/Info : Advanced Video Codec
    Format profile : High@L4.1
    Format settings, CABAC : Yes
    Format settings, ReFrames : 5 frames
    Codec ID : V_MPEG4/ISO/AVC
    Duration : 1h 33mn
    Bit rate : 4 500 Kbps
    Width : 1 920 pixels
    Height : 1 040 pixels
    Display aspect ratio : 1.85:1
    Frame rate mode : Constant
    Frame rate : 23.976 fps
    Color space : YUV
    Chroma subsampling : 4:2:0
    Bit depth : 8 bits
    Scan type : Progressive
    Bits/(Pixel*Frame) : 0.094
    Stream size : 2.89 GiB (89%)
    Writing library : x264 core 142 r2479 dd79a61
    Encoding settings : cabac=1 / ref=5 / deblock=1:-2:-1 / analyse=0x3:0x133 / me=umh / subme=11 / psy=1 / psy_rd=1.00:0.15 / mixed_ref=1 / me_range=32 / chroma_me=1 / trellis=2 / 8x8dct=1 / cqm=0 / deadzone=21,11 / fast_pskip=1 / chroma_qp_offset=-3 / threads=6 / lookahead_threads=1 / sliced_threads=0 / nr=0 / decimate=1 / interlaced=0 / bluray_compat=0 / constrained_intra=0 / bframes=4 / b_pyramid=2 / b_adapt=2 / b_bias=0 / direct=3 / weightb=1 / open_gop=0 / weightp=2 / keyint=240 / keyint_min=24 / scenecut=40 / intra_refresh=0 / rc_lookahead=60 / rc=2pass / mbtree=1 / bitrate=4500 / ratetol=1.0 / qcomp=0.60 / qpmin=0 / qpmax=69 / qpstep=4 / cplxblur=20.0 / qblur=0.5 / ip_ratio=1.40 / aq=1:1.00
    Default : Yes
    Forced : No
    Color range : Limited
    Color primaries : BT.709
    Transfer characteristics : BT.709
    Matrix coefficients : BT.709

    Audio
    ID : 2
    Format : AC-3
    Format/Info : Audio Coding 3
    Mode extension : CM (complete main)
    Format settings, Endianness : Big
    Codec ID : A_AC3
    Duration : 1h 33mn
    Bit rate mode : Constant
    Bit rate : 448 Kbps
    Channel(s) : 6 channels
    Channel positions : Front: L C R, Side: L R, LFE
    Sampling rate : 48.0 KHz
    Compression mode : Lossy
    Stream size : 301 MiB (9%)
    Language : Russian
    Default : Yes
    Forced : No

    Menu
    00:00:00.000 : en:Chapter 1
    00:07:30.867 : en:Chapter 2
    00:11:39.741 : en:Chapter 3
    00:17:56.534 : en:Chapter 4
    00:24:00.356 : en:Chapter 5
    00:29:25.347 : en:Chapter 6
    00:35:29.169 : en:Chapter 7
    00:42:30.590 : en:Chapter 8
    00:47:45.571 : en:Chapter 9
    00:54:28.557 : en:Chapter 10
    00:59:16.553 : en:Chapter 11
    01:06:24.856 : en:Chapter 12
    01:11:27.909 : en:Chapter 13
    01:19:23.842 : en:Chapter 14
    01:23:32.716 : en:Chapter 15
    01:28:56.790 : en:Chapter 16
4.0 из 10
голосов: 4
/10
/10
grab777 27-09-2015, 16:43
Информация
Посетители, находящиеся в группе Гости, не могут оставлять комментарии к данной публикации.