Панель пользователя
Регистрация

Воспользуйтесь социальными сетями для входа на https://freerutor.com

vk odnoklassniki facebook mailru yandex google
Популярное
Счетчик
Голосуй за нас
VIP на сайте
Популярное
Товары интернет магазина
загрузка...

Последняя смена / Last Shift (2014) HDRip-AVC

Последняя смена / Last Shift (2014) HDRip-AVC
Участники торрент обмена
Сидов Пиров Скачали
0 0 2670
Характеристика
Размер Файлы
1.45 GB
Поделиться раздачей
Фильмы (AVC)
Название: Последняя смена
Оригинальное название: Last Shift
Жанр: ужасы, триллер
Выпущено: США / Skyra Entertainment
Режиссер: Энтони ДиБлази
В ролях: Джулиана Харкви, Джошуа Микель, Дж. ЛаРоуз, Натали Виктория, Сара Скулко, Кэтрин Килгер, Мэри Лэнкфорд Пойли, Джереми С. Брок, Аманда Дефранс, Мэтт Домэн
Краткое описание: Последняя ночь новичка полицейского, перед закрытием их участка, превращается в живой кошмар.
  • Видео: MPEG-4 AVC, 1900 Кбит/с, 1024x432
    Аудио: Русский (AC3, 6 ch, 384 Кбит/с)
    Перевод: Любительский одноголосый [ХихиДок]
    Продолжительность: 01:27:33
  • Последняя смена / Last Shift (2014) HDRip-AVC Последняя смена / Last Shift (2014) HDRip-AVC Последняя смена / Last Shift (2014) HDRip-AVC
  • General
    Unique ID : 251580218490625918058123140911393120821 (0xBD44966E4EB47C87319599CE884FA235)
    Complete name : F:Последняя смена.(2014).HDRIP_AVC.[-=DoMiNo=-].mkv
    Format : Matroska
    Format version : Version 4 / Version 2
    File size : 1.45 GiB
    Duration : 1h 27mn
    Overall bit rate : 2 372 Kbps
    Writing application : XviD4PSP 7.0.170
    Writing library : Lavf56.25.101
    ENCODING_INFO : MATROSKA,WEBM > MKV / H264 > X264 VBR-2P 1988kbps Custom / AC3 > AC3 CBR 384kbps

    Video
    ID : 1
    Format : AVC
    Format/Info : Advanced Video Codec
    Format profile : High@L4.1
    Format settings, CABAC : Yes
    Format settings, ReFrames : 12 frames
    Codec ID : V_MPEG4/ISO/AVC
    Duration : 1h 27mn
    Bit rate : 1 988 Kbps
    Width : 1 024 pixels
    Height : 432 pixels
    Display aspect ratio : 2.40:1
    Frame rate mode : Constant
    Frame rate : 23.976 fps
    Color space : YUV
    Chroma subsampling : 4:2:0
    Bit depth : 8 bits
    Scan type : Progressive
    Bits/(Pixel*Frame) : 0.187
    Stream size : 1.19 GiB (82%)
    Writing library : x264 core 148 r2597M e86f3a1
    Encoding settings : cabac=1 / ref=12 / deblock=1:-3:-3 / analyse=0x3:0x133 / me=umh / subme=11 / psy=1 / psy_rd=1.00:0.20 / mixed_ref=1 / me_range=32 / chroma_me=1 / trellis=2 / 8x8dct=1 / cqm=0 / deadzone=21,11 / fast_pskip=0 / chroma_qp_offset=-3 / threads=5 / lookahead_threads=1 / sliced_threads=0 / nr=0 / decimate=1 / interlaced=0 / bluray_compat=0 / constrained_intra=0 / bframes=11 / b_pyramid=2 / b_adapt=2 / b_bias=0 / direct=3 / weightb=1 / open_gop=0 / weightp=2 / keyint=230 / keyint_min=23 / scenecut=40 / intra_refresh=0 / rc=2pass / mbtree=0 / bitrate=1988 / ratetol=1.0 / qcomp=0.60 / qpmin=0 / qpmax=69 / qpstep=4 / cplxblur=20.0 / qblur=0.5 / ip_ratio=1.40 / pb_ratio=1.30 / aq=1:1.00
    Language : English
    Default : Yes
    Forced : No

    Audio
    ID : 2
    Format : AC-3
    Format/Info : Audio Coding 3
    Mode extension : CM (complete main)
    Format settings, Endianness : Big
    Codec ID : A_AC3
    Duration : 1h 27mn
    Bit rate mode : Constant
    Bit rate : 384 Kbps
    Channel(s) : 6 channels
    Channel positions : Front: L C R, Side: L R, LFE
    Sampling rate : 48.0 KHz
    Bit depth : 32 bits
    Compression mode : Lossy
    Delay relative to video : 27ms
    Stream size : 240 MiB (16%)
    Title : Xixidok
    Language : Russian
    Default : Yes
    Forced : No

    Menu
    00:00:00.000 : :00:00:00.000
    00:06:04.114 : :00:06:04.114
    00:10:57.532 : :00:10:57.532
    00:15:02.110 : :00:15:02.110
    00:21:18.486 : :00:21:18.486
    00:28:57.986 : :00:28:57.986
    00:34:16.513 : :00:34:16.513
    00:44:24.120 : :00:44:24.120
    00:56:38.228 : :00:56:38.228
    01:02:50.392 : :01:02:50.392
    01:11:40.004 : :01:11:40.004
    01:21:55.327 : :01:21:55.327
10.0 из 10
голосов: 2
/10
/10
grab777 22-09-2015, 21:46
Информация
Посетители, находящиеся в группе Гости, не могут оставлять комментарии к данной публикации.