Панель пользователя
Регистрация

Воспользуйтесь социальными сетями для входа на https://freerutor.com

vk odnoklassniki facebook mailru yandex google
Популярное
Счетчик
Голосуй за нас
VIP на сайте
Популярное
Товары интернет магазина
загрузка...

Земля будущего / Tomorrowland (2015) BDRip-AVC | Лицензия

Земля будущего / Tomorrowland (2015) BDRip-AVC | Лицензия
Участники торрент обмена
Сидов Пиров Скачали
3 0 4762
Характеристика
Размер Файлы
2.73 GB
Поделиться раздачей
Фильмы (AVC)
Название: Земля будущего
Оригинальное название: Tomorrowland
Жанр: Фантастика, боевик, детектив, приключения
Выпущено: США, Испания / A113, Babieka, Walt Disney Pictures
Режиссер: Брэд Берд
В ролях: Бритт Робертсон, Джордж Клуни, Рэффи Кэссиди, Хью Лори, Тим МакГроу, Кэтрин Хан, Кигэн-Майкл Ки, Кристофер Бауэр, Томас Робинсон, Пирс Гэнон, Мэттью МакКоулл, Джуди Грир, Мэтт Андерсон, Майкл Джаккино, Д. Хэрлан Катшелл, Шило Нельсон, Ксанта Рэдли, Дэвид Найкл, Пол МакДжиллион, Пирс Виссер
Краткое описание: Когда в руки к молодой девушке, жаждущей новых приключений, попадает загадочный предмет, открывающий доступ в параллельную реальность, она вынуждена обратиться за помощью к циничному гению-изобретателю Фрэнку. Кейси должна убедить бывшего вундеркинда раскрыть ей тайну загадочного места, находящегося вне привычной реальности, известного как Земля будущего, и убедить Фрэнка вернуться туда, откуда его однажды изгнали…
  • Видео: MPEG-4 AVC, 2245 Кбит/с, 1024x464
    Аудио: Русский, английский (AC3, 6 ch, 384 Кбит/с)
    Перевод: Дублированный [iTunes]
    Субтитры: Русские, английские
    Продолжительность: 02:10:03
  • Земля будущего / Tomorrowland (2015) BDRip-AVC | Лицензия Земля будущего / Tomorrowland (2015) BDRip-AVC | Лицензия Земля будущего / Tomorrowland (2015) BDRip-AVC | Лицензия
  • Формат : Matroska
    Версия формата : Version 2
    Размер файла : 2,73 Гбайт
    Продолжительность : 2 ч. 10 м.
    Общий поток : 3010 Кбит/сек
    Название фильма : Tomorrowland.2015.x264.BDRip.AVC.Rus.Eng
    Дата кодирования : UTC 2015-09-24 17:15:56
    Программа кодирования : mkvmerge v7.9.0 ('Birds') 64bit
    Библиотека кодирования : libebml v1.3.1 + libmatroska v1.4.2

    Видео
    Идентификатор : 1
    Формат : AVC
    Формат/Информация : Advanced Video Codec
    Профиль формата : High@L4.1
    Параметр CABAC формата : Да
    Параметр ReFrames формата : 12 кадров
    Идентификатор кодека : V_MPEG4/ISO/AVC
    Продолжительность : 2 ч. 10 м.
    Битрейт : 2245 Кбит/сек
    Ширина : 1024 пикселя
    Высота : 464 пикселя
    Соотношение сторон : 2,2:1
    Режим частоты кадров : Постоянный
    Частота кадров : 23,976 кадра/сек
    Цветовое пространство : YUV
    Субдискретизация насыщенности : 4:2:0
    Битовая глубина : 8 бит
    Тип развёртки : Прогрессивная
    Бит/(Пиксели*Кадры) : 0.197
    Размер потока : 1,98 Гбайт (72%)
    Заголовок : Tomorrowland.2015.x264.BDRip.AVC.Rus.Eng.by.StarbirS
    Библиотека кодирования : x264 core 148 r2597 e86f3a1
    Настройки программы : cabac=1 / ref=12 / deblock=1:-3:-3 / analyse=0x3:0x113 / me=umh / subme=10 / psy=1 / psy_rd=1.05:0.10 / mixed_ref=1 / me_range=48 / chroma_me=1 / trellis=2 / 8x8dct=1 / cqm=0 / deadzone=21,11 / fast_pskip=0 / chroma_qp_offset=-3 / threads=12 / lookahead_threads=2 / sliced_threads=0 / nr=0 / decimate=0 / interlaced=0 / bluray_compat=0 / constrained_intra=0 / bframes=7 / b_pyramid=2 / b_adapt=2 / b_bias=0 / direct=3 / weightb=1 / open_gop=1 / weightp=2 / keyint=240 / keyint_min=23 / scenecut=40 / intra_refresh=0 / rc=2pass / mbtree=0 / bitrate=2245 / ratetol=1.0 / qcomp=0.70 / qpmin=0 / qpmax=69 / qpstep=4 / cplxblur=20.0 / qblur=0.5 / ip_ratio=1.40 / pb_ratio=1.30 / aq=2:0.90
    Язык : English
    Default : Да
    Forced : Нет

    Аудио #1
    Идентификатор : 2
    Формат : AC-3
    Формат/Информация : Audio Coding 3
    Расширение режима : CM (complete main)
    Параметр Endianness формата : Big
    Идентификатор кодека : A_AC3
    Продолжительность : 2 ч. 10 м.
    Вид битрейта : Постоянный
    Битрейт : 384 Кбит/сек
    Каналы : 6 каналов
    Расположение каналов : Front: L C R, Side: L R, LFE
    Частота : 48,0 КГц
    Метод сжатия : С потерями
    Размер потока : 357 Мбайт (13%)
    Заголовок : Дублированный (iTunes)
    Язык : Russian
    Default : Да
    Forced : Нет

    Аудио #2
    Идентификатор : 3
    Формат : AC-3
    Формат/Информация : Audio Coding 3
    Расширение режима : CM (complete main)
    Параметр Endianness формата : Big
    Идентификатор кодека : A_AC3
    Продолжительность : 2 ч. 10 м.
    Вид битрейта : Постоянный
    Битрейт : 384 Кбит/сек
    Каналы : 6 каналов
    Расположение каналов : Front: L C R, Side: L R, LFE
    Частота : 48,0 КГц
    Метод сжатия : С потерями
    Размер потока : 357 Мбайт (13%)
    Язык : English
    Default : Нет
    Forced : Нет

    Текст #1
    Идентификатор : 4
    Формат : UTF-8
    Идентификатор кодека : S_TEXT/UTF8
    Идентификатор кодека/Информация : UTF-8 Plain Text
    Язык : Russian
    Default : Нет
    Forced : Нет

    Текст #2
    Идентификатор : 5
    Формат : UTF-8
    Идентификатор кодека : S_TEXT/UTF8
    Идентификатор кодека/Информация : UTF-8 Plain Text
    Язык : Russian
    Default : Нет
    Forced : Нет

    Текст #3
    Идентификатор : 6
    Формат : UTF-8
    Идентификатор кодека : S_TEXT/UTF8
    Идентификатор кодека/Информация : UTF-8 Plain Text
    Язык : English
    Default : Нет
    Forced : Нет

    Меню
    00:00:00.000 : en:00:00:00.000
    00:16:12.013 : en:00:16:12.013
    00:21:56.565 : en:00:21:56.565
    00:28:52.189 : en:00:28:52.189
    00:37:37.046 : en:00:37:37.046
    00:46:35.418 : en:00:46:35.418
    00:55:01.048 : en:00:55:01.048
    01:11:48.471 : en:01:11:48.471
    01:19:18.087 : en:01:19:18.087
    01:26:45.033 : en:01:26:45.033
    01:30:57.702 : en:01:30:57.702
    01:38:05.296 : en:01:38:05.296
    01:49:50.501 : en:01:49:50.501
    01:56:11.298 : en:01:56:11.298
    02:01:26.946 : en:02:01:26.946
6.6 из 10
голосов: 8
/10
/10
grab777 27-09-2015, 16:28
Информация
Посетители, находящиеся в группе Гости, не могут оставлять комментарии к данной публикации.