Панель пользователя
Регистрация

Воспользуйтесь социальными сетями для входа на https://freerutor.com

vk odnoklassniki facebook mailru yandex google
Популярное
Счетчик
Голосуй за нас
VIP на сайте
Популярное
Товары интернет магазина
загрузка...

Полтергейст / Poltergeist (2015) BDRip 1080p | Лицензия

Полтергейст / Poltergeist (2015) BDRip 1080p | Лицензия
Участники торрент обмена
Сидов Пиров Скачали
0 0 370
Характеристика
Размер Файлы
7.76 GB
Релиз группа
Поделиться раздачей
Фильмы (720,1080,Blu-Ray)
Название: Полтергейст
Оригинальное название: Poltergeist
Жанр: Ужасы, триллер
Выпущено: США, Канада / Metro-Goldwyn-Mayer (MGM), Ghost House Pictures
Режиссер: Гил Кинан
В ролях: Сэм Рокуэлл, Розмари ДеУитт, Саксон Шарбино, Кайл Кэтлетт, Кеннеди Клементс, Джаред Харрис, Джейн Адамс, Сьюзэн Хэйард, Николас Браун, Карен Ивани
Краткое описание: Когда страшные призраки забирают младшую дочь, семье приходится объединиться, чтобы спасти ее…
  • Видео: MPEG-4 AVC, 10770 Кбит/с, 1920x800
    Аудио: Русский (AC3, 6 ch, 448 Кбит/с), английский (AC3, 6 ch, 640 Кбит/с)
    Перевод: Дублированный [Лицензия]
    Субтитры: Русские, английские
    Продолжительность: 01:33:41
  • Полтергейст / Poltergeist (2015) BDRip 1080p | Лицензия Полтергейст / Poltergeist (2015) BDRip 1080p | Лицензия Полтергейст / Poltergeist (2015) BDRip 1080p | Лицензия
  • Format : Matroska
    Format version : Version 2
    File size : 7.76 GiB
    Duration : 1h 33mn
    Overall bit rate : 11.9 Mbps
    Movie name : Poltergeist.(2015).BDRip.1080p.[denis100].Theatrical Cut
    Encoded date : UTC 2015-09-20 08:47:50
    Writing application : mkvmerge v5.8.0 ('No Sleep / Pillow') built on Sep 2 2012 15:37:04
    Writing library : libebml v1.2.3 + libmatroska v1.3.0

    Video
    ID : 1
    Format : AVC
    Format/Info : Advanced Video Codec
    Format profile : High@L4.1
    Format settings, CABAC : Yes
    Format settings, ReFrames : 5 frames
    Codec ID : V_MPEG4/ISO/AVC
    Duration : 1h 33mn
    Bit rate : 10.8 Mbps
    Width : 1 920 pixels
    Height : 800 pixels
    Display aspect ratio : 2.40:1
    Frame rate : 23.976 fps
    Color space : YUV
    Chroma subsampling : 4:2:0
    Bit depth : 8 bits
    Scan type : Progressive
    Bits/(Pixel*Frame) : 0.292
    Stream size : 6.89 GiB (89%)
    Title : Poltergeist.(2015).BDRip.1080p.[denis100].Theatrical Cut
    Writing library : x264 core 148 r2597 e86f3a1
    Encoding settings : cabac=1 / ref=5 / deblock=1:-3:-3 / analyse=0x3:0x133 / me=umh / subme=11 / psy=1 / psy_rd=1.00:0.00 / mixed_ref=1 / me_range=32 / chroma_me=1 / trellis=2 / 8x8dct=1 / cqm=0 / deadzone=21,11 / fast_pskip=0 / chroma_qp_offset=-2 / threads=6 / lookahead_threads=1 / sliced_threads=0 / nr=0 / decimate=1 / interlaced=0 / bluray_compat=0 / constrained_intra=0 / bframes=8 / b_pyramid=2 / b_adapt=2 / b_bias=0 / direct=1 / weightb=1 / open_gop=0 / weightp=2 / keyint=240 / keyint_min=23 / scenecut=40 / intra_refresh=0 / rc=2pass / mbtree=0 / bitrate=10770 / ratetol=1.0 / qcomp=0.60 / qpmin=0 / qpmax=69 / qpstep=4 / cplxblur=20.0 / qblur=0.5 / ip_ratio=1.40 / pb_ratio=1.30 / aq=1:1.00
    Language : English
    Default : Yes
    Forced : No

    Audio #1
    ID : 2
    Format : AC-3
    Format/Info : Audio Coding 3
    Mode extension : CM (complete main)
    Codec ID : A_AC3
    Duration : 1h 33mn
    Bit rate mode : Constant
    Bit rate : 448 Kbps
    Channel(s) : 6 channels
    Channel positions : Front: L C R, Side: L R, LFE
    Sampling rate : 48.0 KHz
    Bit depth : 16 bits
    Compression mode : Lossy
    Stream size : 300 MiB (4%)
    Title : Дублированный
    Language : Russian
    Default : Yes
    Forced : No

    Audio #2
    ID : 3
    Format : AC-3
    Format/Info : Audio Coding 3
    Mode extension : CM (complete main)
    Codec ID : A_AC3
    Duration : 1h 33mn
    Bit rate mode : Constant
    Bit rate : 640 Kbps
    Channel(s) : 6 channels
    Channel positions : Front: L C R, Side: L R, LFE
    Sampling rate : 48.0 KHz
    Bit depth : 16 bits
    Compression mode : Lossy
    Stream size : 429 MiB (5%)
    Language : English
    Default : No
    Forced : No

    Text #1
    ID : 4
    Format : UTF-8
    Codec ID : S_TEXT/UTF8
    Codec ID/Info : UTF-8 Plain Text
    Language : Russian
    Default : No
    Forced : No

    Text #2
    ID : 5
    Format : UTF-8
    Codec ID : S_TEXT/UTF8
    Codec ID/Info : UTF-8 Plain Text
    Language : English
    Default : No
    Forced : No

    Menu
    00:00:00.000 : en:00:00:00.000
    00:04:57.339 : en:00:04:57.339
    00:07:30.533 : en:00:07:30.533
    00:11:23.224 : en:00:11:23.224
    00:15:28.511 : en:00:15:28.511
    00:17:31.008 : en:00:17:31.008
    00:21:27.786 : en:00:21:27.786
    00:24:58.664 : en:00:24:58.664
    00:28:59.529 : en:00:28:59.529
    00:31:19.252 : en:00:31:19.252
    00:35:33.214 : en:00:35:33.214
    00:40:14.620 : en:00:40:14.620
    00:43:16.135 : en:00:43:16.135
    00:47:00.651 : en:00:47:00.651
    00:53:27.996 : en:00:53:27.996
    00:57:47.839 : en:00:57:47.839
    01:00:02.015 : en:01:00:02.015
    01:02:35.919 : en:01:02:35.919
    01:05:33.680 : en:01:05:33.680
    01:09:02.513 : en:01:09:02.513
    01:12:32.890 : en:01:12:32.890
    01:18:19.403 : en:01:18:19.403
    01:22:52.884 : en:01:22:52.884
    01:27:49.681 : en:01:27:49.681
5.0 из 10
голосов: 1
/10
/10
grab777 20-09-2015, 12:30
Информация
Посетители, находящиеся в группе Гости, не могут оставлять комментарии к данной публикации.