Панель пользователя
Регистрация

Воспользуйтесь социальными сетями для входа на https://freerutor.com

vk odnoklassniki facebook mailru yandex google
Популярное
Счетчик
Голосуй за нас
VIP на сайте
Популярное
Товары интернет магазина
загрузка...

Врата тьмы / Pay the Ghost (2015) BDRip 720p | Лицензия

Врата тьмы / Pay the Ghost (2015) BDRip 720p | Лицензия
Участники торрент обмена
Сидов Пиров Скачали
5 0 481
Характеристика
Размер Файлы
3.33 GB
Релиз группа
Поделиться раздачей
Фильмы (720,1080,Blu-Ray)
Название: Врата тьмы
Оригинальное название: Pay the Ghost
Жанр: Ужасы, триллер
Выпущено: США / Midnight Kitchen Productions, Voltage Films
Режиссер: Ули Эдель
В ролях: Николас Кейдж, Сара Уэйн Каллис, Алекс Маллари-мл., Вероника Феррес, Лирик Бент, Эрин Бойес, Джек Фултон, София Уэллс, Элизабет Джинна ле Ру, Марк Ирвингсен, Максвелл МакКейб-Локос, Хуан Карлос Велис, Лорен Битти
Краткое описание: Существует древнее поверье, что раз в год, на Хэллоуин, открываются врата между миром живых и миром мертвых. В этот день зло практически всесильно... Во время ночного праздничного парада в Нью-Йорке у профессора Майка Кола бесследно пропадает его маленький сын. Полиции не удается найти ребенка, однако после собственного расследования отец узнает, что некое мощное древнее проклятие забирает детей каждый год. Чтобы вернуть себе своего сына, у него есть только один шанс - в ночь на Хэллоуин отправиться по ту сторону врат тьмы....
  • Видео: MPEG-4 AVC, 4044 kbps, 1280x534
    Аудио: Русский (AC3, 6 ch, 384 Кбит/с), английский (AC3, 6 ch, 640 Кбит/с)
    Перевод: Дублированный (iTunes)
    Субтитры: Английские
    Продолжительность: 01:34:06
  • Врата тьмы / Pay the Ghost (2015) BDRip 720p | Лицензия Врата тьмы / Pay the Ghost (2015) BDRip 720p | Лицензия Врата тьмы / Pay the Ghost (2015) BDRip 720p | Лицензия
  • Общее
    Уникальный идентификатор : 246940205400550576129044563139814242118 (0xB9C6F41F7BDDE5F894FDAC0C6E183746)
    Полное имя : E:\Кинозал - 1\Vrata.T'my.2015.DUAL.BDRip.720p.-HELLYWOOD.mkv
    Формат : Matroska
    Версия формата : Version 4 / Version 2
    Размер файла : 3,33 Гбайт
    Продолжительность : 1 ч. 34 м.
    Общий поток : 5070 Кбит/сек
    Название фильма : Pay the Ghost (2015) - HELLYWOOD
    Дата кодирования : UTC 2010-02-22 21:41:31
    Программа кодирования : mkvmerge v5.8.0 ('No Sleep / Pillow') built on Sep 30 2012 10:57:14
    Библиотека кодирования : libebml v1.3.0 + libmatroska v1.4.0

    Видео
    Идентификатор : 1
    Формат : AVC
    Формат/Информация : Advanced Video Codec
    Профиль формата : High@L4.1
    Параметр CABAC формата : Да
    Параметр ReFrames формата : 9 кадров
    Идентификатор кодека : V_MPEG4/ISO/AVC
    Продолжительность : 1 ч. 34 м.
    Битрейт : 4044 Кбит/сек
    Ширина : 1280 пикселей
    Высота : 534 пикселя
    Соотношение сторон : 2,40:1
    Режим частоты кадров : Постоянный
    Частота кадров : 23,976 кадра/сек
    Цветовое пространство : YUV
    Субдискретизация насыщенности : 4:2:0
    Битовая глубина : 8 бит
    Тип развёртки : Прогрессивная
    Бит/(Пиксели*Кадры) : 0.247
    Размер потока : 2,59 Гбайт (78%)
    Заголовок : potroks
    Библиотека кодирования : x264 core 146 r2538 121396c
    Настройки программы : cabac=1 / ref=9 / deblock=1:-3:-3 / analyse=0x3:0x113 / me=umh / subme=11 / psy=1 / psy_rd=1.00:0.05 / mixed_ref=1 / me_range=48 / chroma_me=1 / trellis=2 / 8x8dct=1 / cqm=0 / deadzone=21,11 / fast_pskip=0 / chroma_qp_offset=-3 / threads=9 / lookahead_threads=2 / sliced_threads=0 / nr=0 / decimate=0 / interlaced=0 / bluray_compat=0 / constrained_intra=0 / bframes=10 / b_pyramid=2 / b_adapt=2 / b_bias=0 / direct=3 / weightb=1 / open_gop=0 / weightp=2 / keyint=250 / keyint_min=23 / scenecut=40 / intra_refresh=0 / rc_lookahead=60 / rc=2pass / mbtree=0 / bitrate=4044 / ratetol=1.0 / qcomp=0.70 / qpmin=0 / qpmax=69 / qpstep=4 / cplxblur=20.0 / qblur=0.5 / vbv_maxrate=14000 / vbv_bufsize=14000 / nal_hrd=none / filler=0 / ip_ratio=1.35 / pb_ratio=1.25 / aq=1:0.80
    Язык : English
    Default : Да
    Forced : Нет

    Аудио #1
    Идентификатор : 2
    Формат : AC-3
    Формат/Информация : Audio Coding 3
    Расширение режима : CM (complete main)
    Параметр Endianness формата : Big
    Идентификатор кодека : A_AC3
    Продолжительность : 1 ч. 34 м.
    Вид битрейта : Постоянный
    Битрейт : 384 Кбит/сек
    Каналы : 6 каналов
    Расположение каналов : Front: L C R, Side: L R, LFE
    Частота : 48,0 КГц
    Битовая глубина : 16 бит
    Метод сжатия : С потерями
    Размер потока : 258 Мбайт (8%)
    Заголовок : Dub | DD 5.1 @ 384 kbps - iTunes
    Язык : Russian
    Default : Да
    Forced : Нет

    Аудио #2
    Идентификатор : 3
    Формат : AC-3
    Формат/Информация : Audio Coding 3
    Расширение режима : CM (complete main)
    Параметр Endianness формата : Big
    Идентификатор кодека : A_AC3
    Продолжительность : 1 ч. 34 м.
    Вид битрейта : Постоянный
    Битрейт : 640 Кбит/сек
    Каналы : 6 каналов
    Расположение каналов : Front: L C R, Side: L R, LFE
    Частота : 48,0 КГц
    Битовая глубина : 16 бит
    Метод сжатия : С потерями
    Размер потока : 431 Мбайт (13%)
    Заголовок : Original | DD 5.1 @ 640 kbps
    Язык : English
    Default : Нет
    Forced : Нет

    Текст #1
    Идентификатор : 4
    Формат : UTF-8
    Идентификатор кодека : S_TEXT/UTF8
    Идентификатор кодека/Информация : UTF-8 Plain Text
    Заголовок : Full
    Язык : English
    Default : Нет
    Forced : Нет

    Текст #2
    Идентификатор : 5
    Формат : UTF-8
    Идентификатор кодека : S_TEXT/UTF8
    Идентификатор кодека/Информация : UTF-8 Plain Text
    Заголовок : SDH
    Язык : English
    Default : Нет
    Forced : Нет

    Текст #3
    Идентификатор : 6
    Формат : UTF-8
    Идентификатор кодека : S_TEXT/UTF8
    Идентификатор кодека/Информация : UTF-8 Plain Text
    Заголовок : SDH-Colored
    Язык : English
    Default : Нет
    Forced : Нет

    Меню
    00:00:00.000 : en:(01)00:00:00:000
    00:07:42.628 : en:(02)00:07:42:628
    00:15:03.694 : en:(03)00:15:03:694
    00:25:59.307 : en:(04)00:25:59:307
    00:31:40.481 : en:(05)00:31:40:481
    00:38:20.089 : en:(06)00:38:20:089
    00:48:40.751 : en:(07)00:48:40:751
    00:58:50.527 : en:(08)00:58:50:527
    01:06:41.539 : en:(09)01:06:41:539
    01:12:39.063 : en:(10)01:12:39:063
    01:16:41.847 : en:(11)01:16:41:847
    01:28:33.558 : en:(12)01:28:33:558
8.0 из 10
голосов: 11
/10
/10
grab777 5-11-2015, 03:00

Tamirlan85 | 20-09-2015, 03:21 | Статус: Оффлайн

Николас Кейдж в последнее время снимается в полном дерьме,это фильмами даже назвать сложно, думаю эта картина не исключение)))

ivan56z | 20-09-2015, 00:21 | Статус: Оффлайн

до 7 минут посмотрел и воспроизведение прекратилось, раздающие что ли ушли?

haizenberg | 20-09-2015, 00:11 | Статус: Оффлайн

а можно семпл?

foster720p | 19-09-2015, 23:57 | Статус: Оффлайн

Цитата: tosko
Ого - откуда у Кейджа такой рейтинг на IMDB тролят или правда фильм стоящий?

Там 29 голосов было же, очевидно что фанаты Кейджа наставили десяток.
Цитата: karta
Реальный рейтинг

Сейчас 5.8, хотя из последних фильмов Николаса это лучшая оценка на IMDb, но через месяц до 5.0 наверняка опустится.

karta | 19-09-2015, 23:51 | Статус: Оффлайн

Цитата: tosko
Ого - откуда у Кейджа такой рейтинг на IMDB тролят или правда фильм стоящий?


Реальный рейтинг

tosko | 19-09-2015, 23:46 | Статус: Оффлайн

Ого - откуда у Кейджа такой рейтинг на IMDB тролят или правда фильм стоящий?
Информация
Посетители, находящиеся в группе Гости, не могут оставлять комментарии к данной публикации.