Панель пользователя
Регистрация

Воспользуйтесь социальными сетями для входа на https://freerutor.com

vk odnoklassniki facebook mailru yandex google
Популярное
Счетчик
Голосуй за нас
VIP на сайте
Популярное
Товары интернет магазина
загрузка...

Частный сыск полковника в отставке 2 (1-4 серии из 4) (2012) WEB-DL 720p

Частный сыск полковника в отставке 2 (1-4 серии из 4) (2012) WEB-DL 720p
Участники торрент обмена
Сидов Пиров Скачали
0 0 239
Характеристика
Размер Файлы
4.40 GB
Релиз группа
Поделиться раздачей
Русские сериалы
Оригинальное название: Частный сыск полковника в отставке 2 (Сувенир от парфюмера)
Жанр: Детектив
Выпущено: Россия / Группа компаний GP
Режиссер: Денис Червяков
В ролях: Анатолий Петров, Александра Флоринская, Ольга Ломоносова, Анатолий Белый, Сергей Шакуров, Екатерина Вуличенко, Дмитрий Богаченко, Виктор Раду, Анастасия Макеева, Александр Суворов
Краткое описание: Пенсионер Валерий Петрович Ходасевич, пытается жить в свое удовольствие избегая стрессов и перегрузок, — слишком много их было в его профессиональной биографии полковника внешней разведки. Неожиданный визит соседа по дому молодого бизнесмена Дениса Конышева нарушает тихое одиночество отставника. Денис рассказывает полковнику о загадочной гибели своего отца и просит заняться частным расследованием. Поначалу Ходасевич отказывается. Но — тонкий психолог и знаток сложных жизненных коллизий — он уже устал сидеть без дела. Предложение соседа явно интригует его — и он соглашается. Вот только история, в которую Денис втравил Ходасевича, оказывается с подвохом…Немало сил придется потратить старому разведчику, чтобы распутать тот ядовитый клубок, в который сплелись отношения обитателей загородного дома семьи Конышевых.
  • Видео: MPEG-4 AVC, 3000 Кбит/с, 1280х720
    Аудио: AC3, 2 ch, 192 Кбит/с
    Перевод: Не требуется
    Продолжительность: 4 x ~ 00:50:00
  • Частный сыск полковника в отставке 2 (1-4 серии из 4) (2012) WEB-DL 720p Частный сыск полковника в отставке 2 (1-4 серии из 4) (2012) WEB-DL 720p Частный сыск полковника в отставке 2 (1-4 серии из 4) (2012) WEB-DL 720p
  • Общее
    Уникальный идентификатор : 254629893994045828962402848904630031769 (0xBF8FEF0AC27354D5AD3E2DDE32E8D599)
    Полное имя : F:\Фильмы торренты\Suvenir.ot.parfiumera-2.2012.WEB-DL.(720p).MediaClub\Suvenir.ot.parfiumera-2.(01.seriya.iz.04).2012.WEB-DL.(720p).MediaClub.mkv
    Формат : Matroska
    Версия формата : Version 2
    Размер файла : 1,11 Гбайт
    Продолжительность : 46 м.
    Общий поток : 3417 Кбит/сек
    Дата кодирования : UTC 2015-09-17 12:26:05
    Программа кодирования : mkvmerge v5.8.0 ('No Sleep / Pillow') built on Sep 2 2012 15:37:04
    Библиотека кодирования : libebml v1.2.3 + libmatroska v1.3.0

    Видео
    Идентификатор : 1
    Формат : AVC
    Формат/Информация : Advanced Video Codec
    Профиль формата : High@L4.1
    Параметр CABAC формата : Да
    Параметр ReFrames формата : 5 кадров
    Идентификатор кодека : V_MPEG4/ISO/AVC
    Продолжительность : 46 м.
    Битрейт : 3157 Кбит/сек
    Ширина : 1280 пикселей
    Высота : 720 пикселей
    Соотношение сторон : 16:9
    Режим частоты кадров : Постоянный
    Частота кадров : 24,000 кадра/сек
    Цветовое пространство : YUV
    Субдискретизация насыщенности : 4:2:0
    Битовая глубина : 8 бит
    Тип развёртки : Прогрессивная
    Бит/(Пиксели*Кадры) : 0.143
    Размер потока : 1,03 Гбайт (92%)
    Язык : Russian
    Default : Да
    Forced : Да

    Аудио
    Идентификатор : 2
    Формат : AC-3
    Формат/Информация : Audio Coding 3
    Расширение режима : CM (complete main)
    Параметр Endianness формата : Big
    Идентификатор кодека : A_AC3
    Продолжительность : 46 м.
    Вид битрейта : Постоянный
    Битрейт : 192 Кбит/сек
    Каналы : 2 канала
    Расположение каналов : Front: L R
    Частота : 48,0 КГц
    Битовая глубина : 16 бит
    Метод сжатия : С потерями
    Размер потока : 63,9 Мбайт (6%)
    Язык : Russian
    Default : Да
    Forced : Да
9.5 из 10
голосов: 2
/10
/10
grab777 19-09-2015, 20:14
Информация
Посетители, находящиеся в группе Гости, не могут оставлять комментарии к данной публикации.