Панель пользователя
Регистрация

Воспользуйтесь социальными сетями для входа на https://freerutor.com

vk odnoklassniki facebook mailru yandex google
Популярное
Счетчик
Голосуй за нас
VIP на сайте
Популярное
Товары интернет магазина
загрузка...

По лезвию бритвы (1-8 серии из 8) (2013) WEB-DL 720p

По лезвию бритвы (1-8 серии из 8) (2013) WEB-DL 720p
Участники торрент обмена
Сидов Пиров Скачали
0 0 226
Характеристика
Размер Файлы
9.95 GB
Релиз группа
Поделиться раздачей
Русские сериалы
Оригинальное название: По лезвию бритвы
Жанр: Драма, военный
Выпущено: Россия / Артель
Режиссер: Сергей Кожевников
В ролях: Владислав Резник, Светлана Антонова, Сергей Угрюмов, Егор Баринов, Роман Богданов, Владимир Щербаков, Алексей Потапкин, Алексей Горячев, Александр Андриенко, Максим Битюков
Краткое описание: 1943-44 годы. В оккупированном немцами Ровно действует советский разведчик… Фильм рассказывает о невероятных операциях выполненных разведчиком, которые включали в себя как разведывательную деятельность, так и физическое устранение высокопоставленных немецких генералов.
  • Видео: MPEG-4 AVC, 3200 Кбит/с, 1280x720
    Аудио: Русский (АС3, 2 ch, 192 Кбит/с)
    Перевод: Не требуется
    Продолжительность: 8 x ~ 00:52:00
  • По лезвию бритвы (1-8 серии из 8) (2013) WEB-DL 720p По лезвию бритвы (1-8 серии из 8) (2013) WEB-DL 720p По лезвию бритвы (1-8 серии из 8) (2013) WEB-DL 720p
  • Общее
    Уникальный идентификатор : 232132908007537291923882258449588360293 (0xAEA32BFF141E51F39427FDAF56391465)
    Полное имя : F:\Фильмы торренты\Po.lezviju.britvy.2013.WEB-DL.(720p).MediaClub\Po.lezviju.britvy.(01.seriya.iz.08).2013.WEB-DL.(720p).MediaClub.mkv
    Формат : Matroska
    Версия формата : Version 2
    Размер файла : 1,24 Гбайт
    Продолжительность : 51 м.
    Режим общего битрейта : Переменный
    Общий поток : 3417 Кбит/сек
    Название фильма : Po.lezviju.britvy.(01.seriya.iz.08).2014.WEB-DL.(720p).MediaClub
    Дата кодирования : UTC 2015-09-14 03:06:18
    Программа кодирования : mkvmerge v5.8.0 ('No Sleep / Pillow') built on Sep 2 2012 15:37:04
    Библиотека кодирования : libebml v1.2.3 + libmatroska v1.3.0

    Видео
    Идентификатор : 1
    Формат : AVC
    Формат/Информация : Advanced Video Codec
    Профиль формата : High@L4.1
    Параметр CABAC формата : Да
    Параметр ReFrames формата : 5 кадров
    Параметр GOP формата : M=2, N=15
    Идентификатор кодека : V_MPEG4/ISO/AVC
    Продолжительность : 51 м.
    Вид битрейта : Переменный
    Битрейт : 3157 Кбит/сек
    Максимальный битрейт : 40,0 Мбит/сек
    Ширина : 1280 пикселей
    Высота : 720 пикселей
    Соотношение сторон : 16:9
    Режим частоты кадров : Постоянный
    Частота кадров : 24,000 кадра/сек
    Цветовое пространство : YUV
    Субдискретизация насыщенности : 4:2:0
    Битовая глубина : 8 бит
    Тип развёртки : Прогрессивная
    Бит/(Пиксели*Кадры) : 0.143
    Размер потока : 1,14 Гбайт (92%)
    Default : Да
    Forced : Да

    Аудио
    Идентификатор : 2
    Формат : AC-3
    Формат/Информация : Audio Coding 3
    Расширение режима : CM (complete main)
    Параметр Endianness формата : Big
    Идентификатор кодека : A_AC3
    Продолжительность : 51 м.
    Вид битрейта : Постоянный
    Битрейт : 192 Кбит/сек
    Каналы : 2 канала
    Расположение каналов : Front: L R
    Частота : 48,0 КГц
    Битовая глубина : 16 бит
    Метод сжатия : С потерями
    Размер потока : 71,2 Мбайт (6%)
    Язык : Russian
    Default : Да
    Forced : Да
9.8 из 10
голосов: 8
/10
/10
grab777 14-09-2015, 19:59

Fedya | 5-10-2015, 18:19 | Статус: Оффлайн

Фильм полностью основан на реальной истории!
Информация
Посетители, находящиеся в группе Гости, не могут оставлять комментарии к данной публикации.