Панель пользователя
Регистрация

Воспользуйтесь социальными сетями для входа на https://freerutor.com

vk odnoklassniki facebook mailru yandex google
Популярное
Счетчик
Голосуй за нас
VIP на сайте
Популярное
Товары интернет магазина
загрузка...

Мелодия на два голоса (1-2 серии из 2) (2015) HDTVRip 720p

Мелодия на два голоса (1-2 серии из 2) (2015) HDTVRip 720p
Участники торрент обмена
Сидов Пиров Скачали
2 1 303
Характеристика
Размер Файлы
7.39 GB
Релиз группа
Поделиться раздачей
Русские сериалы
Оригинальное название: Мелодия на два голоса
Жанр: Мелодрама
Выпущено: Россия / ABC Film, Film Stream
Режиссер: Сергей Мезенцев
В ролях: Олеся Фаттахова, Евгений Шириков, Иван Шабалтас, Татьяна Лютаева, Владислав Ветров, Кирилл Запорожский, Наталья Чернявская, Агата Муцениеце
Краткое описание: Ирина и Сергей знакомятся не в лучший для них обоих день: их встреча происходит в загсе, где они оба оформляют развод со своими вторыми половинами…
  • Видео: MPEG-4 AVC, 5800 Кбит/с, 1280х720
    Аудио: AC3, 2 ch, 192 Кбит/с
    Перевод: Не требуется
    Продолжительность: 2 x ~ 01:30:00
  • Мелодия на два голоса (1-2 серии из 2) (2015) HDTVRip 720p Мелодия на два голоса (1-2 серии из 2) (2015) HDTVRip 720p Мелодия на два голоса (1-2 серии из 2) (2015) HDTVRip 720p
  • Общее
    Уникальный идентификатор : 183928786341403992745082603308200890765 (0x8A5F654E3B518134B3DD23F4339A118D)
    Полное имя : F:\Фильмы торренты\Melodija.na.dva.golosa.2015.HDTVRip.(720p).MediaClub\Melodija.na.dva.golosa.(01.seriya.iz.02).2015.HDTVRip.(720p).MediaClub.mkv
    Формат : Matroska
    Версия формата : Version 2
    Размер файла : 3,69 Гбайт
    Продолжительность : 1 ч. 29 м.
    Общий поток : 5876 Кбит/сек
    Дата кодирования : UTC 2015-09-13 04:50:18
    Программа кодирования : mkvmerge v7.8.0 ('River Man') 32bit built on Apr 3 2015 12:11:22
    Библиотека кодирования : libebml v1.3.1 + libmatroska v1.4.2

    Видео
    Идентификатор : 1
    Формат : AVC
    Формат/Информация : Advanced Video Codec
    Профиль формата : High@L4.1
    Параметр CABAC формата : Да
    Параметр ReFrames формата : 9 кадров
    Идентификатор кодека : V_MPEG4/ISO/AVC
    Продолжительность : 1 ч. 29 м.
    Битрейт : 5685 Кбит/сек
    Ширина : 1280 пикселей
    Высота : 720 пикселей
    Соотношение сторон : 16:9
    Режим частоты кадров : Постоянный
    Частота кадров : 25,000 кадров/сек
    Цветовое пространство : YUV
    Субдискретизация насыщенности : 4:2:0
    Битовая глубина : 8 бит
    Тип развёртки : Прогрессивная
    Бит/(Пиксели*Кадры) : 0.247
    Размер потока : 3,50 Гбайт (95%)
    Библиотека кодирования : x264 core 146 r2538 121396c
    Настройки программы : cabac=1 / ref=9 / deblock=1:-3:3 / analyse=0x3:0x113 / me=umh / subme=11 / psy=1 / psy_rd=1.00:0.20 / mixed_ref=1 / me_range=32 / chroma_me=1 / trellis=2 / 8x8dct=1 / cqm=0 / deadzone=21,11 / fast_pskip=0 / chroma_qp_offset=-3 / threads=12 / lookahead_threads=3 / sliced_threads=0 / nr=0 / decimate=0 / interlaced=0 / bluray_compat=0 / constrained_intra=0 / bframes=12 / b_pyramid=2 / b_adapt=2 / b_bias=0 / direct=1 / weightb=1 / open_gop=0 / weightp=2 / keyint=250 / keyint_min=25 / scenecut=40 / intra_refresh=0 / rc_lookahead=60 / rc=2pass / mbtree=0 / bitrate=5685 / ratetol=1.0 / qcomp=0.60 / qpmin=0 / qpmax=69 / qpstep=4 / cplxblur=20.0 / qblur=0.5 / vbv_maxrate=14000 / vbv_bufsize=14000 / nal_hrd=none / filler=0 / ip_ratio=1.40 / pb_ratio=1.30 / aq=3:0.80
    Default : Да
    Forced : Нет
    Основные цвета : BT.709
    Характеристики трансфера : BT.709
    Коэффициенты матрицы : BT.709

    Аудио
    Идентификатор : 2
    Формат : AC-3
    Формат/Информация : Audio Coding 3
    Расширение режима : CM (complete main)
    Параметр Endianness формата : Big
    Идентификатор кодека : A_AC3
    Продолжительность : 1 ч. 29 м.
    Вид битрейта : Постоянный
    Битрейт : 192 Кбит/сек
    Каналы : 2 канала
    Расположение каналов : Front: L R
    Частота : 48,0 КГц
    Битовая глубина : 16 бит
    Метод сжатия : С потерями
    Размер потока : 124 Мбайт (3%)
    Default : Да
    Forced : Нет
7.8 из 10
голосов: 8
/10
/10
grab777 13-09-2015, 22:24
Информация
Посетители, находящиеся в группе Гости, не могут оставлять комментарии к данной публикации.