Панель пользователя
Регистрация

Воспользуйтесь социальными сетями для входа на https://freerutor.com

vk odnoklassniki facebook mailru yandex google
Популярное
Счетчик
Голосуй за нас
VIP на сайте
Популярное
Товары интернет магазина
загрузка...

Мстители: Эра Альтрона / Avengers: Age of Ultron (2015) BDRip 1080p | 60 fps | Лицензия

Мстители: Эра Альтрона / Avengers: Age of Ultron (2015) BDRip 1080p | 60 fps | Лицензия
Участники торрент обмена
Сидов Пиров Скачали
2 0 857
Характеристика
Размер Файлы
9.36 GB
Релиз группа
Поделиться раздачей
Фильмы (720,1080,Blu-Ray)
Название: Мстители: Эра Альтрона
Оригинальное название: Avengers: Age of Ultron
Жанр: Фантастика, боевик, приключения
Выпущено: США / Marvel Studios Inc.
Режиссер: Джосс Уидон
В ролях: Роберт Дауни мл., Крис Хемсворт, Крис Эванс, Скарлетт Йоханссон, Марк Руффало, Джереми Реннер, Аарон Тейлор-Джонсон, Элизабет Олсен, Джеймс Спэйдер, Сэмюэл Л. Джексон
Краткое описание: Человечество на грани уничтожения. На этот раз людям угрожает Альтрон — искусственный интеллект, ранее созданный для того, чтобы защищать Землю от любых угроз. Однако, главной угрозой он посчитал человечество. Международная организация Щ. И. Т. распалась, и теперь мир не способен справиться с таким мощным врагом, потому люди вновь обращаются за помощью к Величайшим Героям Земли — Мстителям. Однако Альтрон слишком силен, и есть большая вероятность, что даже им не удастся остановить начало надвигающейся Эры Альтрона, где нет места для людей…
  • Видео: MPEG-4 AVC, 8437 Кбит/с, 1920x804
    Аудио: Русский, (AC3, 6 ch, 384 Кбит/с), английский (AC3, 6 ch, 448 Кбит/с)
    Перевод: Дублированный [iTunes]
    Субтитры: Русские, английские
    Продолжительность: 02:21:40
  • Мстители: Эра Альтрона / Avengers: Age of Ultron (2015) BDRip 1080p | 60 fps | Лицензия Мстители: Эра Альтрона / Avengers: Age of Ultron (2015) BDRip 1080p | 60 fps | Лицензия Мстители: Эра Альтрона / Avengers: Age of Ultron (2015) BDRip 1080p | 60 fps | Лицензия
  • Format : Matroska
    Format version : Version 2
    File size : 9.36 GiB
    Duration : 2h 21mn
    Overall bit rate : 9 457 Kbps
    Movie name : Мстители: Эра Альтрона.(2015).BDRip.1080p.[envy].[60fps]
    Encoded date : UTC 2015-09-13 12:00:10
    Writing application : mkvmerge v5.8.0 ('No Sleep / Pillow') built on Sep 2 2012 15:37:04
    Writing library : libebml v1.2.3 + libmatroska v1.3.0

    Video
    ID : 1
    Format : AVC
    Format/Info : Advanced Video Codec
    Format profile : High@L4.1
    Format settings, CABAC : Yes
    Format settings, ReFrames : 4 frames
    Codec ID : V_MPEG4/ISO/AVC
    Duration : 2h 21mn
    Bit rate : 8 437 Kbps
    Width : 1 920 pixels
    Height : 804 pixels
    Display aspect ratio : 2.40:1
    Frame rate mode : Constant
    Frame rate : 59.880 fps
    Original frame rate : 59.940 fps
    Color space : YUV
    Chroma subsampling : 4:2:0
    Bit depth : 8 bits
    Scan type : Progressive
    Bits/(Pixel*Frame) : 0.091
    Stream size : 8.35 GiB (89%)
    Title : Мстители: Эра Альтрона.(2015).BDRip.1080p.[envy].[60fps]
    Writing library : x264 core 146 r2538 121396c
    Encoding settings : cabac=1 / ref=4 / deblock=1:0:0 / analyse=0x3:0x113 / me=umh / subme=11 / psy=1 / psy_rd=1.00:0.00 / mixed_ref=1 / me_range=24 / chroma_me=1 / trellis=2 / 8x8dct=1 / cqm=0 / deadzone=21,11 / fast_pskip=0 / chroma_qp_offset=-2 / threads=12 / lookahead_threads=2 / sliced_threads=0 / nr=0 / decimate=1 / interlaced=0 / bluray_compat=0 / constrained_intra=0 / bframes=7 / b_pyramid=2 / b_adapt=2 / b_bias=0 / direct=3 / weightb=1 / open_gop=0 / weightp=2 / keyint=250 / keyint_min=25 / scenecut=40 / intra_refresh=0 / rc_lookahead=40 / rc=crf / mbtree=0 / crf=18.0 / qcomp=0.60 / qpmin=0 / qpmax=69 / qpstep=4 / vbv_maxrate=14000 / vbv_bufsize=14000 / crf_max=0.0 / nal_hrd=none / filler=0 / ip_ratio=1.40 / pb_ratio=1.30 / aq=3:1.00
    Language : English
    Default : Yes
    Forced : No

    Audio #1
    ID : 2
    Format : AC-3
    Format/Info : Audio Coding 3
    Mode extension : CM (complete main)
    Format settings, Endianness : Big
    Codec ID : A_AC3
    Duration : 2h 21mn
    Bit rate mode : Constant
    Bit rate : 384 Kbps
    Channel(s) : 6 channels
    Channel positions : Front: L C R, Side: L R, LFE
    Sampling rate : 48.0 KHz
    Compression mode : Lossy
    Stream size : 389 MiB (4%)
    Title : Dub (iTunes)
    Language : Russian
    Default : Yes
    Forced : No

    Audio #2
    ID : 3
    Format : AC-3
    Format/Info : Audio Coding 3
    Mode extension : CM (complete main)
    Format settings, Endianness : Big
    Codec ID : A_AC3
    Duration : 2h 21mn
    Bit rate mode : Constant
    Bit rate : 448 Kbps
    Channel(s) : 6 channels
    Channel positions : Front: L C R, Side: L R, LFE
    Sampling rate : 48.0 KHz
    Compression mode : Lossy
    Stream size : 454 MiB (5%)
    Title : Eng
    Language : English
    Default : No
    Forced : No

    Text #1
    ID : 4
    Format : UTF-8
    Codec ID : S_TEXT/UTF8
    Codec ID/Info : UTF-8 Plain Text
    Title : Rus forced
    Language : Russian
    Default : Yes
    Forced : Yes

    Text #2
    ID : 5
    Format : UTF-8
    Codec ID : S_TEXT/UTF8
    Codec ID/Info : UTF-8 Plain Text
    Title : Rus full
    Language : Russian
    Default : No
    Forced : No

    Text #3
    ID : 6
    Format : UTF-8
    Codec ID : S_TEXT/UTF8
    Codec ID/Info : UTF-8 Plain Text
    Title : Eng full
    Language : English
    Default : No
    Forced : No

    Menu
    00:00:00.000 : en:00:00:00.000
    00:12:15.193 : en:00:12:15.193
    00:21:23.949 : en:00:21:23.949
    00:33:01.771 : en:00:33:01.771
    00:36:07.624 : en:00:36:07.624
    00:42:00.768 : en:00:42:00.768
    00:52:44.745 : en:00:52:44.745
    00:59:01.872 : en:00:59:01.872
    01:15:51.088 : en:01:15:51.088
    01:27:08.598 : en:01:27:08.598
    01:36:44.757 : en:01:36:44.757
    01:54:35.327 : en:01:54:35.327
    02:06:27.580 : en:02:06:27.580
    02:11:08.027 : en:02:11:08.027
7.4 из 10
голосов: 5
/10
/10
grab777 13-09-2015, 21:32

haizenberg | 13-09-2015, 22:32 | Статус: Оффлайн

за раздачу спасибо, не дождался я 60 фпс , посмотрел в 3 D , но фильм не понравился, или я вышел из этого возраста..
Информация
Посетители, находящиеся в группе Гости, не могут оставлять комментарии к данной публикации.