Панель пользователя
Регистрация

Воспользуйтесь социальными сетями для входа на https://freerutor.com

vk odnoklassniki facebook mailru yandex google
Популярное
Счетчик
Голосуй за нас
VIP на сайте
Популярное
Товары интернет магазина
загрузка...

Дом тигра / Tiger House (2015) BDRip 720p

Дом тигра / Tiger House (2015) BDRip 720p
Участники торрент обмена
Сидов Пиров Скачали
0 0 144
Характеристика
Размер Файлы
3.34 GB
Поделиться раздачей
Фильмы (720,1080,Blu-Ray)
Наименование: Дом тигра
Оригинальное наименование: Tiger House
Произведено: Великобритания, ЮАР
Категория: боевик, триллер, драма, криминал
Режиссер постановщик: Томас Дэйли
В главных ролях: Эд Скрейн, Кая Скоделарио, Дюгрей Скотт, Брэндон Оре, Лэнгли Кирквуд, Джули Саммерс, Дэниэл Бойд, Эндрю Брент
Краткое описание: Когда героиня фильма Келли узнала, что неизвестные преступники ворвались в дачный дом ее лучшего друга и взяли его в плен вместе с родителями, то Келли поняла, что теперь на полицию можно не рассчитывать, потому что она просто не успеет осуществить спасательную операцию. Так как Келли была профессиональной гимнасткой, то ей не составило труда тайком проникнуть в дом с преступниками и заложниками, после чего героиня начала ориентироваться по ситуации. На хрупкие плечи девушки возложена очень огромная ответственность, потому что отважной героине придется самостоятельно справляться с вооруженными бандитами.
  • Видео данные: MPEG-4 AVC, 4131 Кбит/с, 1280x720
    Аудио данные: Русский (MP3, 2 ch, 128 Кбит/с), английский (DTS, 6 ch, 1509 Кбит/с)
    Перевод: Любительское (одноголосое) [Петр Титов]
    Субтитры: Английские
    Продолжительность: 01:22:44
  • Дом тигра / Tiger House (2015) BDRip 720p Дом тигра / Tiger House (2015) BDRip 720p Дом тигра / Tiger House (2015) BDRip 720p
  • Format : Matroska
    Format version : Version 4 / Version 2
    File size : 3.34 GiB
    Duration : 1h 22mn
    Overall bit rate : 5 770 Kbps
    Movie name : DOM.TuGPA.2015.BDRip.720p
    Encoded date : UTC 2015-12-27 12:38:20
    Writing application : mkvmerge v8.3.0 ('Over the Horizon') 64bit
    Writing library : libebml v1.3.1 + libmatroska v1.4.2
    Attachements : poster (2).jpg

    Video
    ID : 1
    Format : AVC
    Format/Info : Advanced Video Codec
    Format profile : High@L4.1
    Format settings, CABAC : Yes
    Format settings, ReFrames : 5 frames
    Codec ID : V_MPEG4/ISO/AVC
    Duration : 1h 22mn
    Bit rate : 4 131 Kbps
    Width : 1 280 pixels
    Height : 720 pixels
    Display aspect ratio : 16:9
    Frame rate mode : Constant
    Frame rate : 23.976 fps
    Color space : YUV
    Chroma subsampling : 4:2:0
    Bit depth : 8 bits
    Scan type : Progressive
    Bits/(Pixel*Frame) : 0.187
    Stream size : 2.39 GiB (72%)
    Writing library : x264 core 148 r2638 7599210
    Encoding settings : cabac=1 / ref=5 / deblock=1:0:0 / analyse=0x3:0x133 / me=umh / subme=8 / psy=1 / psy_rd=1.00:0.00 / mixed_ref=1 / me_range=16 / chroma_me=1 / trellis=1 / 8x8dct=1 / cqm=0 / deadzone=21,11 / fast_pskip=0 / chroma_qp_offset=-2 / threads=12 / lookahead_threads=2 / sliced_threads=0 / nr=0 / decimate=1 / interlaced=0 / bluray_compat=0 / constrained_intra=0 / bframes=3 / b_pyramid=2 / b_adapt=1 / b_bias=0 / direct=1 / weightb=1 / open_gop=0 / weightp=2 / keyint=250 / keyint_min=23 / scenecut=40 / intra_refresh=0 / rc_lookahead=40 / rc=2pass / mbtree=1 / bitrate=4131 / ratetol=1.0 / qcomp=0.60 / qpmin=0 / qpmax=69 / qpstep=4 / cplxblur=20.0 / qblur=0.5 / ip_ratio=1.40 / aq=1:1.00
    Language : English
    Default : Yes
    Forced : No

    Audio #1
    ID : 2
    Format : MPEG Audio
    Format version : Version 1
    Format profile : Layer 3
    Codec ID : A_MPEG/L3
    Codec ID/Hint : MP3
    Duration : 1h 22mn
    Bit rate mode : Constant
    Bit rate : 128 Kbps
    Channel(s) : 2 channels
    Sampling rate : 44.1 KHz
    Frame rate : 38.243 fps (1153 spf)
    Compression mode : Lossy
    Delay relative to video : 14ms
    Stream size : 75.7 MiB (2%)
    Title : Одноголосый любительский (Петр Титов)
    Language : Russian
    Default : Yes
    Forced : No

    Audio #2
    ID : 3
    Format : DTS
    Format/Info : Digital Theater Systems
    Mode : 16
    Format settings, Endianness : Big
    Codec ID : A_DTS
    Duration : 1h 22mn
    Bit rate mode : Constant
    Bit rate : 1 509 Kbps
    Channel(s) : 6 channels
    Channel positions : Front: L C R, Side: L R, LFE
    Sampling rate : 48.0 KHz
    Frame rate : 93.750 fps (512 spf)
    Bit depth : 24 bits
    Compression mode : Lossy
    Stream size : 893 MiB (26%)
    Language : English
    Default : No
    Forced : No

    Text
    ID : 4
    Format : UTF-8
    Codec ID : S_TEXT/UTF8
    Codec ID/Info : UTF-8 Plain Text
    Duration : 1h 17mn
    Bit rate : 32 bps
    Count of elements : 587
    Stream size : 18.5 KiB (0%)
    Language : English
    Default : No
    Forced : No
9.1 из 10
голосов: 10
/10
/10
Раздачу отредактировал: grab777 - 28-12-2015, 09:05
По причине: (Замена WEB-DLRip 720р на BDRip 720p)
6arbo 28-12-2015, 09:05
Информация
Посетители, находящиеся в группе Гости, не могут оставлять комментарии к данной публикации.