Панель пользователя
Регистрация

Воспользуйтесь социальными сетями для входа на https://freerutor.com

vk odnoklassniki facebook mailru yandex google
Популярное
Счетчик
Голосуй за нас
VIP на сайте
Популярное
Товары интернет магазина
загрузка...

Миньоны / Minions (2015) BDRip-AVC | Лицензия

Миньоны / Minions (2015) BDRip-AVC |  Лицензия
Участники торрент обмена
Сидов Пиров Скачали
14 0 18151
Характеристика
Размер Файлы
2.12 GB
Поделиться раздачей
Мультфильмы
Название: Миньоны
Оригинальное название: Minions
Жанр: Мультфильм, комедия
Выпущено: США / Illumination Entertainment
Режиссер: Кайл Балда, Пьер Соффи
В ролях: Сандра Баллок, Джон Хэмм, Майкл Китон, Эллисон Джэнни, Стив Кугэн, Дженнифер Сондерс, Джеффри Раш, Стив Карелл, Пьер Соффин, Кэти Миксон
Краткое описание: Миньоны живут на планете гораздо дольше нас. У них одна навязчивая идея — служить самой Гадкой личности из имеющихся в наличии. Динозавры, фараоны, Дракула, Наполеон — все они оказались недолговечны. И тогда миньоны рванули в Нью-Йорк. Их ждут деньги, власть, роковая суперзлодейка Скарлет Оверкилл и, конечно же, вкуснейшая «банана»! Во всяком случае, так им кажется.
  • Видео: MPEG-4 AVC, 2559 Кбит/c, 1024x552
    Аудио: Русский, английский (AC3, 6 ch, 384 Кбит/с)
    Перевод: Дублированное [iTunes]
    Субтитры: Английские
    Продолжительность: 01:30:58
  • Миньоны / Minions (2015) BDRip-AVC |  Лицензия Миньоны / Minions (2015) BDRip-AVC |  Лицензия Миньоны / Minions (2015) BDRip-AVC |  Лицензия
  • Формат : Matroska
    Версия формата : Version 2
    Размер файла : 2,12 Гбайт
    Продолжительность : 1 ч. 30 м.
    Общий поток : 3329 Кбит/сек
    Название фильма : Minions.2015.x264.BDRip.AVC.Rus.Eng
    Дата кодирования : UTC 2015-10-23 14:33:06
    Программа кодирования : mkvmerge v7.9.0 ('Birds') 64bit
    Библиотека кодирования : libebml v1.3.1 + libmatroska v1.4.2

    Видео
    Идентификатор : 1
    Формат : AVC
    Формат/Информация : Advanced Video Codec
    Профиль формата : High@L4.1
    Параметр CABAC формата : Да
    Параметр ReFrames формата : 11 кадров
    Идентификатор кодека : V_MPEG4/ISO/AVC
    Продолжительность : 1 ч. 30 м.
    Битрейт : 2559 Кбит/сек
    Ширина : 1024 пикселя
    Высота : 552 пикселя
    Соотношение сторон : 1,85:1
    Режим частоты кадров : Постоянный
    Частота кадров : 23,976 кадра/сек
    Цветовое пространство : YUV
    Субдискретизация насыщенности : 4:2:0
    Битовая глубина : 8 бит
    Тип развёртки : Прогрессивная
    Бит/(Пиксели*Кадры) : 0.189
    Размер потока : 1,58 Гбайт (75%)
    Заголовок : Minions.2015.x264.BDRip.AVC.Rus.Eng.by.StarbirS
    Библиотека кодирования : x264 core 148 r2597 e86f3a1
    Настройки программы : cabac=1 / ref=11 / deblock=1:-3:-3 / analyse=0x3:0x113 / me=umh / subme=11 / psy=1 / psy_rd=1.10:0.20 / mixed_ref=1 / me_range=48 / chroma_me=1 / trellis=2 / 8x8dct=1 / cqm=0 / deadzone=21,11 / fast_pskip=0 / chroma_qp_offset=-3 / threads=12 / lookahead_threads=2 / sliced_threads=0 / nr=0 / decimate=0 / interlaced=0 / bluray_compat=0 / constrained_intra=0 / bframes=9 / b_pyramid=2 / b_adapt=2 / b_bias=0 / direct=3 / weightb=1 / open_gop=1 / weightp=2 / keyint=240 / keyint_min=23 / scenecut=40 / intra_refresh=0 / rc=2pass / mbtree=0 / bitrate=2559 / ratetol=1.0 / qcomp=0.60 / qpmin=0 / qpmax=69 / qpstep=4 / cplxblur=20.0 / qblur=0.5 / ip_ratio=1.40 / pb_ratio=1.30 / aq=2:0.80
    Язык : English
    Default : Да
    Forced : Нет

    Аудио #1
    Идентификатор : 2
    Формат : AC-3
    Формат/Информация : Audio Coding 3
    Расширение режима : CM (complete main)
    Параметр Endianness формата : Big
    Идентификатор кодека : A_AC3
    Продолжительность : 1 ч. 30 м.
    Вид битрейта : Постоянный
    Битрейт : 384 Кбит/сек
    Каналы : 6 каналов
    Расположение каналов : Front: L C R, Side: L R, LFE
    Частота : 48,0 КГц
    Метод сжатия : С потерями
    Размер потока : 250 Мбайт (12%)
    Заголовок : Дублированный (iTunes)
    Язык : Russian
    Default : Да
    Forced : Нет

    Аудио #2
    Идентификатор : 3
    Формат : AC-3
    Формат/Информация : Audio Coding 3
    Расширение режима : CM (complete main)
    Параметр Endianness формата : Big
    Идентификатор кодека : A_AC3
    Продолжительность : 1 ч. 30 м.
    Вид битрейта : Постоянный
    Битрейт : 384 Кбит/сек
    Каналы : 6 каналов
    Расположение каналов : Front: L C R, Side: L R, LFE
    Частота : 48,0 КГц
    Метод сжатия : С потерями
    Размер потока : 250 Мбайт (12%)
    Язык : English
    Default : Нет
    Forced : Нет

    Текст
    Идентификатор : 4
    Формат : UTF-8
    Идентификатор кодека : S_TEXT/UTF8
    Идентификатор кодека/Информация : UTF-8 Plain Text
    Язык : English
    Default : Нет
    Forced : Нет

    Меню
    00:00:00.000 : en:00:00:00.000
    00:05:39.839 : en:00:05:39.839
    00:11:28.938 : en:00:11:28.938
    00:16:55.139 : en:00:16:55.139
    00:22:28.430 : en:00:22:28.430
    00:26:59.034 : en:00:26:59.034
    00:32:54.639 : en:00:32:54.639
    00:37:28.872 : en:00:37:28.872
    00:40:58.831 : en:00:40:58.831
    00:45:29.310 : en:00:45:29.310
    00:49:24.086 : en:00:49:24.086
    00:53:43.053 : en:00:53:43.053
    00:57:04.921 : en:00:57:04.921
    01:01:36.943 : en:01:01:36.943
    01:05:54.701 : en:01:05:54.701
    01:07:55.238 : en:01:07:55.238
    01:11:19.150 : en:01:11:19.150
    01:15:32.653 : en:01:15:32.653
    01:21:12.826 : en:01:21:12.826
    01:28:24.758 : en:01:28:24.758
9.0 из 10
голосов: 9
/10
/10
grab777 23-10-2015, 22:45
Информация
Посетители, находящиеся в группе Гости, не могут оставлять комментарии к данной публикации.