Панель пользователя
Регистрация

Воспользуйтесь социальными сетями для входа на https://freerutor.com

vk odnoklassniki facebook mailru yandex google
Популярное
Счетчик
Голосуй за нас
VIP на сайте
Популярное
Товары интернет магазина
загрузка...

Отель Люкс / Hotel Lux (2011) BDRip 1080p | Лицензия

Отель Люкс / Hotel Lux (2011) BDRip 1080p | Лицензия
Участники торрент обмена
Сидов Пиров Скачали
0 0 32
Характеристика
Размер Файлы
15.70 GB
Поделиться раздачей
Фильмы (720,1080,Blu-Ray)
Название: Отель Люкс
Оригинальное название: Hotel Lux
Жанр: Комедия
Выпущено: Германия / arte, Bavaria Fernsehproduktion, Bavaria Film
Режиссер: Леандер Хаусманн
В ролях: Михаэль Хербиг, Юрген Фогель, Текла Рютен, Александр Сендерович, Юрай Кукур, Фридрих Карл Прэторус, Томас Тиме, Себастьян Бломберг, Аксель Вандтке, Штеффи Кюнерт
Краткое описание: В 1938 году после возмутившей нацистские власти пародии на Гитлера аполитичный комик, пародист и артист кабаре Ханс Цайсиг вынужден бежать из Германии. Вместо манящих его Америки и Голливуда ему приходится довольствоваться советским паспортом и Москвой. Там он оказывается в легендарном отеле Люкс, месте сбора членов Коминтерна со всех стран мира. Здесь, однако, его приключения только начинаются. Актера принимают за личного астролога Гитлера, и он быстро понимает, что попал из огня да в полымя. В отеле Люкс Ханс также встречает свою подругу Фриду и бывшего партнера по сцене Майера, все еще остающихся убежденными коммунистами. Так для трех героев идеалистов начинается незабываемое приключение между любовью и смертью.
  • Видео: MPEG-4 AVC, 18400 Кбит/с, 1920x816
    Аудио: Русский (DTS, 6 ch, 768 Кбит/с), немецкий (DTS, 6 ch, 1510 Кбит/с)
    Перевод: Профессиональный многоголосый (Лицензия)
    Субтитры: Русские, немецкие
    Продолжительность: 01:46:26
  • Отель Люкс / Hotel Lux (2011) BDRip 1080p | Лицензия Отель Люкс / Hotel Lux (2011) BDRip 1080p | Лицензия Отель Люкс / Hotel Lux (2011) BDRip 1080p | Лицензия
  • Attachements : cover.jpg
    DURATION : 01:41:43.917000000
    NUMBER_OF_FRAMES : 1836
    NUMBER_OF_BYTES : 8780959
    _STATISTICS_WRITING_APP : mkvmerge v8.3.0 ('Over the Horizon') 64bit
    _STATISTICS_WRITING_DATE_UTC : 2015-09-05 10:11:44
    _STATISTICS_TAGS : BPS DURATION NUMBER_OF_FRAMES NUMBER_OF_BYTES

    Видео
    Идентификатор : 1
    Формат : AVC
    Формат/Информация : Advanced Video Codec
    Профиль формата : High@L4.1
    Параметр CABAC формата : Да
    Параметр ReFrames формата : 4 кадра
    Идентификатор кодека : V_MPEG4/ISO/AVC
    Продолжительность : 1 ч. 46 м.
    Вид битрейта : Переменный
    Битрейт : 18,9 Мбит/сек
    Максимальный битрейт : 20,0 Мбит/сек
    Ширина : 1920 пикселей
    Высота : 816 пикселей
    Соотношение сторон : 2,35:1
    Режим частоты кадров : Постоянный
    Частота кадров : 24,000 кадра/сек
    Цветовое пространство : YUV
    Субдискретизация насыщенности : 4:2:0
    Битовая глубина : 8 бит
    Тип развёртки : Прогрессивная
    Бит/(Пиксели*Кадры) : 0.503
    Размер потока : 13,7 Гбайт (87%)
    Заголовок : -=AdamuS=-
    Библиотека кодирования : x264 core 142 H7982+74 F81D273 JMOD [King Record Co.]JP
    Настройки программы : cabac=1 / ref=5 / deblock=1:-2:-2 / analyse=0x3:0x113 / me=umh / subme=11 / psy=1 / fade_compensate=0.00 / psy_rd=0.95:0.15 / mixed_ref=1 / me_range=54 / chroma_me=1 / trellis=2 / 8x8dct=1 / cqm=0 / deadzone=21,11 / fast_pskip=0 / chroma_qp_offset=-3 / threads=14 / lookahead_threads=8 / sliced_threads=0 / nr=0 / decimate=1 / interlaced=0 / bluray_compat=1 / stitchable=1 / constrained_intra=0 / fgo=0 / bframes=3 / b_pyramid=1 / b_adapt=2 / b_bias=0 / direct=2 / weightb=1 / open_gop=1 / weightp=1 / keyint=240 / keyint_min=1 / scenecut=40 / intra_refresh=0 / rc_lookahead=90 / rc=2pass / mbtree=1 / bitrate=18900 / ratetol=1.0 / qcomp=0.82 / qpmin=0:0:0 / qpmax=69:69:69 / qpstep=4 / cplxblur=20.0 / qblur=0.5 / vbv_maxrate=20000 / vbv_bufsize=60000 / nal_hrd=vbr / filler=0 / ip_ratio=1.40 / aq=3:2.00 / aq-sensitivity=10.00 / aq-factor=1.00:1.00:1.00 / aq2=0 / aq3=0
    Язык : English
    Default : Да
    Forced : Нет
    Цветовой диапазон : Limited
    Основные цвета : BT.709
    Характеристики трансфера : BT.709
    Коэффициенты матрицы : BT.709
    DURATION : 01:46:27.005000000
    NUMBER_OF_FRAMES : 153288
    NUMBER_OF_BYTES : 15020994877
    _STATISTICS_WRITING_APP : mkvmerge v8.3.0 ('Over the Horizon') 64bit
    _STATISTICS_WRITING_DATE_UTC : 2015-09-05 10:11:44
    _STATISTICS_TAGS : BPS DURATION NUMBER_OF_FRAMES NUMBER_OF_BYTES

    Аудио #1
    Идентификатор : 2
    Формат : DTS
    Формат/Информация : Digital Theater Systems
    Режим : 16
    Параметр Endianness формата : Big
    Идентификатор кодека : A_DTS
    Продолжительность : 1 ч. 46 м.
    Вид битрейта : Постоянный
    Битрейт : 768 Кбит/сек
    Каналы : 6 каналов
    Расположение каналов : Front: L C R, Side: L R, LFE
    Частота : 48,0 КГц
    Битовая глубина : 24 бит
    Метод сжатия : С потерями
    Размер потока : 585 Мбайт (4%)
    Язык : Russian
    Default : Да
    Forced : Нет

    Аудио #2
    Идентификатор : 3
    Формат : DTS
    Формат/Информация : Digital Theater Systems
    Режим : 16
    Параметр Endianness формата : Big
    Идентификатор кодека : A_DTS
    Продолжительность : 1 ч. 46 м.
    Вид битрейта : Постоянный
    Битрейт : 1509 Кбит/сек
    Каналы : 6 каналов
    Расположение каналов : Front: L C R, Side: L R, LFE
    Частота : 48,0 КГц
    Битовая глубина : 24 бит
    Метод сжатия : С потерями
    Размер потока : 1,12 Гбайт (7%)
    Язык : German
    Default : Нет
    Forced : Нет

    Текст #1
    Идентификатор : 4
    Формат : PGS
    Режим смешивания : zlib
    Идентификатор кодека : S_HDMV/PGS
    Идентификатор кодека/Информация : Picture based subtitle format used on BDs/HD-DVDs
    Язык : Russian
    Default : Да
    Forced : Нет

    Текст #2
    Идентификатор : 5
    Формат : PGS
    Режим смешивания : zlib
    Идентификатор кодека : S_HDMV/PGS
    Идентификатор кодека/Информация : Picture based subtitle format used on BDs/HD-DVDs
    Язык : German
    Default : Нет
    Forced : Нет
10.0 из 10
голосов: 2
/10
/10
grab777 5-09-2015, 16:16

Kavasar | 5-09-2015, 17:12 | Статус: Оффлайн

С битрейтом перебор, но все равно спасибо, посмотрим.
Информация
Посетители, находящиеся в группе Гости, не могут оставлять комментарии к данной публикации.