Панель пользователя
Регистрация

Воспользуйтесь социальными сетями для входа на https://freerutor.com

vk odnoklassniki facebook mailru yandex google
Популярное
Счетчик
Голосуй за нас
VIP на сайте
Популярное
Товары интернет магазина
загрузка...

Странная магия / Strange Magic (2015) WEB-DLRip-AVC | Лицензия

Странная магия / Strange Magic (2015) WEB-DLRip-AVC | Лицензия
Участники торрент обмена
Сидов Пиров Скачали
1 0 1283
Характеристика
Размер Файлы
1.55 GB
Релиз группа
Поделиться раздачей
Мультфильмы
Название: Странные чары
Оригинальное название: Strange Magic
Жанр: Мультфильм, мюзикл, фэнтези, семейный, полнометражный
Выпущено: США / Industrial Light & Magic (ILM), Lucasfilm Animation, Lucasfilm Animation Singapore, Lucasfilm Ltd., Touchstone Pictures
Режиссер: Гари Ридстром
В ролях: Алан Камминг, Эван Рэйчел Вуд, Элайджа Келли, Мередит Энн Булл, Сэм Палладио, Кристин Ченоуэт, Альфред Молина, Майя Рудольф, Боб Эйнштейн, Петер Стормаре
Краткое описание: Музыкальная сказка о гоблинах, эльфах, феях и бесах, рассказанная под мелодии популярных песен последних шести десятилетий.
  • Видео: MPEG-4 AVC, 1850 Кбит/с, 1024x432
    Аудио: AC3, 6 ch, 384 Кбит/с
    Перевод: Дублированный (iTunes)
    Продолжительность: 01:39:38
  • Странная магия / Strange Magic (2015) WEB-DLRip-AVC | Лицензия Странная магия / Strange Magic (2015) WEB-DLRip-AVC | Лицензия Странная магия / Strange Magic (2015) WEB-DLRip-AVC | Лицензия
  • General
    Unique ID : 178207990199752727848679161156063678035 (0x86119C47772B6A04B3317CF9980B4E53)
    Complete name : Strannaya.Maag1ya.2015.D.WEB-DLRip(AVC)-ExKinoRay.mkv
    Format : Matroska
    Format version : Version 2
    File size : 1.55 GiB
    Duration : 1h 39mn
    Overall bit rate : 2 234 Kbps
    Encoded date : UTC 2015-05-21 22:15:47
    Writing application : mkvmerge v7.8.0 ('River Man') 32bit built on Apr 3 2015 12:11:22
    Writing library : libebml v1.3.1 + libmatroska v1.4.2

    Video
    ID : 1
    Format : AVC
    Format/Info : Advanced Video Codec
    Format profile : High@L4.1
    Format settings, CABAC : Yes
    Format settings, ReFrames : 10 frames
    Codec ID : V_MPEG4/ISO/AVC
    Duration : 1h 39mn
    Bit rate : 1 850 Kbps
    Width : 1 024 pixels
    Height : 432 pixels
    Display aspect ratio : 2.40:1
    Frame rate mode : Constant
    Frame rate : 23.976 fps
    Color space : YUV
    Chroma subsampling : 4:2:0
    Bit depth : 8 bits
    Scan type : Progressive
    Bits/(Pixel*Frame) : 0.174
    Stream size : 1.26 GiB (81%)
    Writing library : x264 core 146 r2538 121396c
    Encoding settings : cabac=1 / ref=10 / deblock=1:-2:-2 / analyse=0x3:0x113 / me=umh / subme=10 / psy=1 / psy_rd=1.00:0.00 / mixed_ref=1 / me_range=32 / chroma_me=1 / trellis=2 / 8x8dct=1 / cqm=0 / deadzone=21,11 / fast_pskip=0 / chroma_qp_offset=-2 / threads=6 / lookahead_threads=1 / sliced_threads=0 / nr=0 / decimate=0 / interlaced=0 / bluray_compat=0 / constrained_intra=0 / bframes=9 / b_pyramid=2 / b_adapt=2 / b_bias=0 / direct=3 / weightb=1 / open_gop=0 / weightp=2 / keyint=240 / keyint_min=23 / scenecut=40 / intra_refresh=0 / rc=2pass / mbtree=0 / bitrate=1850 / ratetol=1.0 / qcomp=0.60 / qpmin=0 / qpmax=51 / qpstep=4 / cplxblur=20.0 / qblur=0.5 / ip_ratio=1.40 / pb_ratio=1.30 / aq=1:1.00
    Default : Yes
    Forced : No

    Audio
    ID : 2
    Format : AC-3
    Format/Info : Audio Coding 3
    Mode extension : CM (complete main)
    Format settings, Endianness : Big
    Codec ID : A_AC3
    Duration : 1h 39mn
    Bit rate mode : Constant
    Bit rate : 384 Kbps
    Channel(s) : 6 channels
    Channel positions : Front: L C R, Side: L R, LFE
    Sampling rate : 48.0 KHz
    Bit depth : 16 bits
    Compression mode : Lossy
    Stream size : 274 MiB (17%)
    Default : Yes
    Forced : No
8.0 из 10
голосов: 5
/10
/10
grab777 28-08-2015, 15:06
Информация
Посетители, находящиеся в группе Гости, не могут оставлять комментарии к данной публикации.