Панель пользователя
Регистрация

Воспользуйтесь социальными сетями для входа на https://freerutor.com

vk odnoklassniki facebook mailru yandex google
Популярное
Счетчик
Голосуй за нас
VIP на сайте
Популярное
Товары интернет магазина
загрузка...

Вне/себя / Self/less (2015) BDRip-AVC | Лицензия

Вне/себя / Self/less (2015) BDRip-AVC | Лицензия
Участники торрент обмена
Сидов Пиров Скачали
3 1 918
Характеристика
Размер Файлы
2.25 GB
Релиз группа
Поделиться раздачей
Фильмы (AVC)
Название: Вне/себя
Оригинальное название: Self/less
Жанр: Фантастика, триллер, детектив
Выпущено: США / Endgame Entertainment, Ram Bergman Productions
Режиссер: Тарсем Сингх
В ролях: Райан Рейнольдс, Бен Кингсли, Натали Мартинес, Мэттью Гуд, Виктор Гарбер, Дерек Люк, Джейни-Линн Кинчен, Мелора Хардин, Мишель Докери, Сэмюэл Пейдж
Краткое описание: Один ученый нашел способ победить смерть с помощью имплантации своего сознания в молодое тело, созданное методом генной инженерии. Операция эта дорогостоящая и проводится подпольно, а поэтому доступна лишь ограниченному кругу лиц. Умирающий пожилой бизнесмен решается на это и получает возможность прожить еще одну жизнь. Однако когда ему приоткрывается тайна происхождения нового тела, за ним начинает охоту секретная организация, которая не остановится ни перед чем, чтобы защитить свои интересы.
  • Видео: MPEG-4 AVC, 2234 Кбит/с, 1024x576
    Аудио: Русский (AC3, 6 ch, 640 Кбит/с)
    Перевод: Дублированное [Лицензия]
    Продолжительность: 01:52:12
  • Вне/себя / Self/less (2015) BDRip-AVC | Лицензия Вне/себя / Self/less (2015) BDRip-AVC | Лицензия Вне/себя / Self/less (2015) BDRip-AVC | Лицензия
  • Вне себяSelfless_2015_AVC_BDRip_r5_[scarabey.org].mkv
    Format : Matroska
    Format version : Version 2
    File size : 2.25 GiB
    Duration : 1h 52mn
    Overall bit rate : 2 876 Kbps
    Encoded date : UTC 2015-10-08 19:39:39
    Writing application : mkvmerge v6.1.0 ('Old Devil') built on Mar 4 2013 09:10:42
    Writing library : libebml v1.3.0 + libmatroska v1.4.0

    Video
    ID : 1
    Format : AVC
    Format/Info : Advanced Video Codec
    Format profile : High@L4.1
    Format settings, CABAC : Yes
    Format settings, ReFrames : 8 frames
    Codec ID : V_MPEG4/ISO/AVC
    Duration : 1h 52mn
    Bit rate : 2 234 Kbps
    Width : 1 024 pixels
    Height : 576 pixels
    Display aspect ratio : 16:9
    Frame rate mode : Constant
    Frame rate : 25.000 fps
    Color space : YUV
    Chroma subsampling : 4:2:0
    Bit depth : 8 bits
    Scan type : Progressive
    Bits/(Pixel*Frame) : 0.152
    Stream size : 1.71 GiB (76%)
    Writing library : x264 core 138 r2356 a1d3d17
    Encoding settings : cabac=1 / ref=8 / deblock=1:-3:-2 / analyse=0x3:0x113 / me=umh / subme=10 / psy=1 / psy_rd=1.00:0.05 / mixed_ref=1 / me_range=32 / chroma_me=1 / trellis=2 / 8x8dct=1 / cqm=0 / deadzone=21,11 / fast_pskip=1 / chroma_qp_offset=-3 / threads=12 / lookahead_threads=2 / sliced_threads=0 / nr=0 / decimate=0 / interlaced=0 / bluray_compat=0 / constrained_intra=0 / bframes=8 / b_pyramid=2 / b_adapt=2 / b_bias=0 / direct=3 / weightb=1 / open_gop=0 / weightp=2 / keyint=250 / keyint_min=25 / scenecut=40 / intra_refresh=0 / rc_lookahead=40 / rc=2pass / mbtree=1 / bitrate=2234 / ratetol=1.0 / qcomp=0.60 / qpmin=0 / qpmax=69 / qpstep=4 / cplxblur=20.0 / qblur=0.5 / ip_ratio=1.40 / aq=1:1.00
    Default : Yes
    Forced : No

    Audio
    ID : 2
    Format : AC-3
    Format/Info : Audio Coding 3
    Mode extension : CM (complete main)
    Format settings, Endianness : Big
    Codec ID : A_AC3
    Duration : 1h 52mn
    Bit rate mode : Constant
    Bit rate : 640 Kbps
    Channel(s) : 6 channels
    Channel positions : Front: L C R, Side: L R, LFE
    Sampling rate : 48.0 KHz
    Bit depth : 16 bits
    Compression mode : Lossy
    Stream size : 514 MiB (22%)
    Default : Yes
    Forced : No
7.9 из 10
голосов: 11
/10
/10
grab777 29-10-2015, 16:59

businka | 14-11-2015, 20:29 | Статус: Оффлайн

очень понравился

haizenberg | 29-10-2015, 19:16 | Статус: Оффлайн

да, фильм то хороший!

dna72 | 29-10-2015, 18:09 | Статус: Онлайн

Очень понравился, и сюжет не затасканный.

iskd2008 | 28-08-2015, 11:56 | Статус: Оффлайн

Добротный фильмец с наличием хорошего сюжета , без чернухи ...

Tores | 27-08-2015, 23:23 | Статус: Оффлайн

Отличный фильм.
Информация
Посетители, находящиеся в группе Гости, не могут оставлять комментарии к данной публикации.