Панель пользователя
Регистрация

Воспользуйтесь социальными сетями для входа на https://freerutor.com

vk odnoklassniki facebook mailru yandex google
Популярное
Счетчик
Голосуй за нас
VIP на сайте
Популярное
Товары интернет магазина
загрузка...

Тихая война / Ting feng zhe (2012) BDRip-AVC

Тихая война / Ting feng zhe (2012) BDRip-AVC
Участники торрент обмена
Сидов Пиров Скачали
0 0 25
Характеристика
Размер Файлы
2.39 GB
Поделиться раздачей
Фильмы (AVC)
Название: Тихая война
Оригинальное название: Ting feng zhe
Жанр: Триллер, драма, криминал
Выпущено: Гонконг, Китай / Mei Ah Films Production Co. Ltd., Pop Movie
Режиссер: Феликс Чонг, Сиу Фай Мак
В ролях: Сюнь Чжоу, Тони Люн Чу Вай, Мевис Фэн, Ван Сюэбин, Йонг Донг, Lap-Man Sin, Вэй Лам, Кэрри ЭнДжи, Генри Фонг, Бай Жу
Краткое описание: В 1950 году в республике Китай пришло к власти новое правительство. Революционеры в разных частях Китая стали организовывать заговоры с целью поднять восстание. Обстановка в стране стала неспокойной. В этих условиях возросла роль особого, 701-го отдела, миссия которого состояла в слежке и сборе данных о вражеском заговоре, ведущимся посредством телеграфа. Внезапно, 126 вражеских каналов пропадают и отдел остается без данных… Теперь задача руководителя отдела и его подчиненных — найти единственного человека, который сможет обнаружить каналы врага — слепого настройщика фортепиано Хэ Бинга. На его розыски отправлена очаровательная и опасная шпионка Чан Сюэ-нин.
  • Видео: MPEG-4 AVC, 1968 Кбит/с, 1024x436
    Аудио: Русский (АС3, 6 ch, 384 Кбит/с), китайский (AC3, 8 ch, 448 Кбит/с)
    Перевод: Любительский двухголосый (den904 и DeadSno)
    Продолжительность: 01:59:53
  • Тихая война / Ting feng zhe (2012) BDRip-AVC Тихая война / Ting feng zhe (2012) BDRip-AVC Тихая война / Ting feng zhe (2012) BDRip-AVC
  • Общее
    Уникальный идентификатор : 251966564444253496049112711614224240596 (0xBD8EFEC1CE8787AFB7B1AB5B8D098FD4)
    Полное имя : D:VideoТихая война.2012.BDRip.AVC.mkv
    Формат : Matroska
    Версия формата : Version 4 / Version 2
    Размер файла : 2,39 Гбайт
    Продолжительность : 1 ч. 59 м.
    Общий поток : 2857 Кбит/сек
    Название фильма : BDRip -- STarankov
    Дата кодирования : UTC 2015-08-26 11:46:29
    Программа кодирования : mkvmerge v8.2.0 ('World of Adventure') 64bit
    Библиотека кодирования : libebml v1.3.1 + libmatroska v1.4.2
    DURATION : 01:59:52.896000000
    NUMBER_OF_FRAMES : 224778
    NUMBER_OF_BYTES : 402802176
    _STATISTICS_WRITING_APP : mkvmerge v8.2.0 ('World of Adventure') 64bit
    _STATISTICS_WRITING_DATE_UTC : 2015-08-26 11:46:29
    _STATISTICS_TAGS : BPS DURATION NUMBER_OF_FRAMES NUMBER_OF_BYTES

    Видео
    Идентификатор : 1
    Формат : AVC
    Формат/Информация : Advanced Video Codec
    Профиль формата : High@L4.1
    Параметр CABAC формата : Да
    Параметр ReFrames формата : 9 кадров
    Идентификатор кодека : V_MPEG4/ISO/AVC
    Продолжительность : 1 ч. 59 м.
    Битрейт : 1968 Кбит/сек
    Ширина : 1024 пикселя
    Высота : 436 пикселей
    Соотношение сторон : 2,35:1
    Режим частоты кадров : Постоянный
    Частота кадров : 24,000 кадра/сек
    Цветовое пространство : YUV
    Субдискретизация насыщенности : 4:2:0
    Битовая глубина : 8 бит
    Тип развёртки : Прогрессивная
    Бит/(Пиксели*Кадры) : 0.184
    Размер потока : 1,65 Гбайт (69%)
    Библиотека кодирования : x264 core 146 r2538 121396c
    Настройки программы : cabac=1 / ref=9 / deblock=1:-1:-1 / analyse=0x3:0x113 / me=umh / subme=10 / psy=1 / psy_rd=1.00:0.15 / mixed_ref=1 / me_range=32 / chroma_me=1 / trellis=2 / 8x8dct=1 / cqm=0 / deadzone=21,11 / fast_pskip=1 / chroma_qp_offset=-3 / threads=6 / lookahead_threads=1 / sliced_threads=0 / nr=0 / decimate=1 / interlaced=0 / bluray_compat=0 / constrained_intra=0 / bframes=13 / b_pyramid=2 / b_adapt=2 / b_bias=0 / direct=1 / weightb=1 / open_gop=0 / weightp=2 / keyint=230 / keyint_min=23 / scenecut=40 / intra_refresh=0 / rc_lookahead=40 / rc=crf / mbtree=0 / crf=18.3 / qcomp=0.60 / qpmin=0 / qpmax=69 / qpstep=4 / vbv_maxrate=40000 / vbv_bufsize=50000 / crf_max=0.0 / nal_hrd=none / filler=0 / ip_ratio=1.40 / pb_ratio=1.30 / aq=1:1.00
    Язык : English
    Default : Да
    Forced : Нет
    DURATION : 01:59:53.625000000
    NUMBER_OF_FRAMES : 172647
    NUMBER_OF_BYTES : 1819209501
    _STATISTICS_WRITING_APP : mkvmerge v8.2.0 ('World of Adventure') 64bit
    _STATISTICS_WRITING_DATE_UTC : 2015-08-26 11:46:29
    _STATISTICS_TAGS : BPS DURATION NUMBER_OF_FRAMES NUMBER_OF_BYTES

    Аудио #1
    Идентификатор : 2
    Формат : AC-3
    Формат/Информация : Audio Coding 3
    Расширение режима : CM (complete main)
    Параметр Endianness формата : Big
    Идентификатор кодека : A_AC3
    Продолжительность : 1 ч. 59 м.
    Вид битрейта : Постоянный
    Битрейт : 384 Кбит/сек
    Каналы : 6 каналов
    Расположение каналов : Front: L C R, Side: L R, LFE
    Частота : 48,0 КГц
    Метод сжатия : С потерями
    Размер потока : 329 Мбайт (13%)
    Заголовок : DVO (любительский, den904 и DeadSno, перевод Skyworker)
    Язык : Russian
    Default : Да
    Forced : Нет

    Аудио #2
    Идентификатор : 3
    Формат : AC-3
    Формат/Информация : Audio Coding 3
    Расширение режима : CM (complete main)
    Параметр Endianness формата : Big
    Идентификатор кодека : A_AC3
    Продолжительность : 1 ч. 59 м.
    Вид битрейта : Постоянный
    Битрейт : 448 Кбит/сек
    Каналы : 6 каналов
    Расположение каналов : Front: L C R, Side: L R, LFE
    Частота : 48,0 КГц
    Метод сжатия : С потерями
    Размер потока : 384 Мбайт (16%)
    Заголовок : Original
    Язык : Chinese
    Default : Нет
    Forced : Нет
5.0 из 10
голосов: 1
/10
/10
grab777 26-08-2015, 22:32
Информация
Посетители, находящиеся в группе Гости, не могут оставлять комментарии к данной публикации.