Панель пользователя
Регистрация

Воспользуйтесь социальными сетями для входа на https://freerutor.com

vk odnoklassniki facebook mailru yandex google
Популярное
Счетчик
Голосуй за нас
VIP на сайте
Популярное
Товары интернет магазина
загрузка...

Записки экспедитора тайной канцелярии (1-8 серии из 8) (2010) HDTV 1080i

Записки экспедитора тайной канцелярии (1-8 серии из 8) (2010) HDTV 1080i
Участники торрент обмена
Сидов Пиров Скачали
1 0 47
Характеристика
Размер Файлы
20.59 GB
Поделиться раздачей
Русские сериалы
Оригинальное название: Записки экспедитора тайной канцелярии
Жанр: Приключения, история, детектив
Выпущено: Россия / Кинокомпания BFT Movie по заказу телеканала ВГТРК
Режиссер: Олег Рясков
В ролях: Сергей Чонишвили, Илья Соколовский, Михаил Полицеймако, Екатерина Редникова, Марина Могилевская, Андрей Чубченко, Дарья Мельникова, Александр Гришин (I), Анастасия Горькова, Максим Дахненко, Александр Стариков, Анна Старшенбаум, Юрий Васильев, Елена Супруненко
Краткое описание: К князю Меншикову приезжает посланец ордена масонов с планом женить наследника престола на дочери серого кардинала. В это же время князя посещает молодой офицер Самойлов. Он получает задание, которое, проявив смекалку и отвагу, с блеском выполняет. После этого глава Тайной канцелярии Ушаков обращает внимание на находчивого офицера и благодаря ловкой интриге вынуждает его поступить на службу в свое ведомство. Теперь Ивана ждут головокружительные приключения — охота за серийным убийцей, расследование смерти пожилого дворянина в доме терпимости, попытка разобраться в кознях прародителя зла и др.
  • Видео: MPEG-TS, 7864 Кбит/с, 1920x1080
    Аудио: MP2, 2 ch, 192 Кбит/с
    Перевод: Не требуется
    Продолжительность: 8 х ~ 00:45:00
  • Записки экспедитора тайной канцелярии (1-8 серии из 8) (2010) HDTV 1080i Записки экспедитора тайной канцелярии (1-8 серии из 8) (2010) HDTV 1080i Записки экспедитора тайной канцелярии (1-8 серии из 8) (2010) HDTV 1080i
  • Внимание! Раздача ведётся путём добавления новых выпусков; при каждом добавлении создаётся новый торрент. Чтобы начать докачку нового выпуска, пользователям необходимо сделать следующее:
    (1) остановить скачивание,
    (2) удалить старый торрент у себя из клиента (старые серии удалять не надо),
    (3) скачать новый торрент и запустить его у себя в клиенте вместо старого, при этом указать клиенту путь в старую папку куда и должно происходить скачивание новых выпусков.
    Ваш клиент при этом должен произвести хеширование (проверку) старой папки (если не производит сам - помогите ему сделать это). В результате он будет докачивать только те выпуски, которых у Вас ещё нет. Старые выпуски при этом не удаляются, а продолжают раздаваться!
    Eсли Вы уже удалили старые выпуски, то предотвратить их повторную закачку можно, сняв галочки в соответствующих местах при запуске нового торрента. По возможности, желательно не удалять старые выпуски как можно дольше, чтобы релизёр не только продолжал раздавать старые выпуски, но и смог сконцентрироваться на новых.

    Как скачать отдельный файл
  • General
    ID : 1 (0x1)
    Complete name : Zapiski.ekspeditora.tainoy.kancelyarii.03.2010.HDTV.1080i.ts
    Format : MPEG-TS
    File size : 2.66 GiB
    Duration : 44mn 50s
    Overall bit rate mode : Variable
    Overall bit rate : 8 477 Kbps

    Video
    ID : 2911 (0xB5F)
    Menu ID : 291 (0x123)
    Format : AVC
    Format/Info : Advanced Video Codec
    Format profile : High@L4
    Format settings, CABAC : Yes
    Format settings, ReFrames : 4 frames
    Codec ID : 27
    Duration : 44mn 50s
    Bit rate : 7 864 Kbps
    Width : 1 920 pixels
    Height : 1 080 pixels
    Display aspect ratio : 16:9
    Frame rate : 25.000 fps
    Color space : YUV
    Chroma subsampling : 4:2:0
    Bit depth : 8 bits
    Scan type : MBAFF
    Scan order : Top Field First
    Bits/(Pixel*Frame) : 0.152
    Stream size : 2.46 GiB (93%)

    Audio
    ID : 2912 (0xB60)
    Menu ID : 291 (0x123)
    Format : MPEG Audio
    Format version : Version 1
    Format profile : Layer 2
    Mode : Joint stereo
    Mode extension : Intensity Stereo + MS Stereo
    Codec ID : 3
    Duration : 44mn 50s
    Bit rate mode : Constant
    Bit rate : 192 Kbps
    Channel(s) : 2 channels
    Sampling rate : 48.0 KHz
    Compression mode : Lossy
    Stream size : 61.6 MiB (2%)
    Language : Russian
6.3 из 10
голосов: 3
/10
/10
Раздачу отредактировал: grab777 - 5-09-2015, 11:00
По причине: (+8 серия)
grab777 5-09-2015, 11:00

lyusietta | 5-09-2015, 15:54 | Статус: Оффлайн

ИНТЕРЕСНЫЙ ФИЛЬМ, СПАСИБО!
Информация
Посетители, находящиеся в группе Гости, не могут оставлять комментарии к данной публикации.