Панель пользователя
Регистрация

Воспользуйтесь социальными сетями для входа на https://freerutor.com

vk odnoklassniki facebook mailru yandex google
Популярное
Счетчик
Голосуй за нас
VIP на сайте
Популярное
Товары интернет магазина
загрузка...

Воздух / Air (2015) BDRip-AVC | Лицензия

Воздух / Air (2015) BDRip-AVC | Лицензия
Участники торрент обмена
Сидов Пиров Скачали
1 0 447
Характеристика
Размер Файлы
2.13 GB
Поделиться раздачей
Фильмы (AVC)
Наименование: Воздух
Оригинальное наименование: Air
Произведено: США
Категория: фантастика, триллер
Режиссер постановщик: Кристиан Кантамесса
В главных ролях: Норман Ридус, Джимон Хонсу, Сандрин Холт,
Майкл Хоган, Питер Бенсон, Дэвид Найкл, Паула Линдберг, Steve Burgess
Краткое описание: В центре сюжета два человека, герои Ридуса и Хонсу. Атмосфера стала совершенно непригодной для жизни, настал апокалипсис. Но у человечества еще есть шанс на спасение. Группа людей, ученых, выжила, благодаря криогенной заморозке. Только они способны спасти жизнь на Земле, и главным героям предстоит охранять их криогенный сон. Но, как оказалось, это задача не из самых простых. Впереди ребят ожидают неимоверные испытания.
  • Видео данные: MPEG-4 AVC, 2400 Кбит/с, 1024x440
    Аудио данные: Русский (AC3, 6 ch, 384 Кбит/с), английский (AC3, 6 ch, 448 Кбит/с)
    Перевод: Профессиональный многоголосый [Лицензия]
    Субтитры: Русские, английские
    Продолжительность: 01:34:28
  • Воздух / Air (2015) BDRip-AVC | Лицензия Воздух / Air (2015) BDRip-AVC | Лицензия Воздух / Air (2015) BDRip-AVC | Лицензия
  • General
    Unique ID : 185214153294227087644178647113983246718 (0x8B56F2CA09F12187844D935EBC0EC17E)
    Complete name : Air.2015.BDRip .AVC..mkv
    Format : Matroska
    Format version : Version 4 / Version 2
    File size : 2.13 GiB
    Duration : 1h 34mn
    Overall bit rate : 3 233 Kbps
    Encoded date : UTC 2015-10-24 07:29:32
    Writing application : mkvmerge v8.5.0 ('Vanishing Act') 64bit
    Writing library : libebml v1.3.1 + libmatroska v1.4.2
    DURATION : 01:26:55.280000000
    NUMBER_OF_FRAMES : 646
    NUMBER_OF_BYTES : 39301
    _STATISTICS_WRITING_APP : mkvmerge v8.5.0 ('Vanishing Act') 64bit
    _STATISTICS_WRITING_DATE_UT : 2015-10-24 07:29:32
    _STATISTICS_TAGS : BPS DURATION NUMBER_OF_FRAMES NUMBER_OF_BYTES

    Video
    ID : 1
    Format : AVC
    Format/Info : Advanced Video Codec
    Format profile : High@L4.1
    Format settings, CABAC : Yes
    Format settings, ReFrames : 8 frames
    Codec ID : V_MPEG4/ISO/AVC
    Duration : 1h 34mn
    Bit rate : 2 400 Kbps
    Width : 1 024 pixels
    Height : 440 pixels
    Display aspect ratio : 2.35:1
    Frame rate mode : Constant
    Frame rate : 23.976 fps
    Color space : YUV
    Chroma subsampling : 4:2:0
    Bit depth : 8 bits
    Scan type : Progressive
    Bits/(Pixel*Frame) : 0.222
    Stream size : 1.54 GiB (72%)
    Writing library : x264 core 146 r2538 121396c
    Encoding settings : cabac=1 / ref=8 / deblock=1:-3:-3 / analyse=0x3:0x113 / me=umh / subme=10 / psy=1 / psy_rd=1.00:0.10 / mixed_ref=0 / me_range=32 / chroma_me=1 / trellis=2 / 8x8dct=1 / cqm=0 / deadzone=21,11 / fast_pskip=1 / chroma_qp_offset=-3 / threads=14 / lookahead_threads=3 / sliced_threads=0 / slices=4 / nr=0 / decimate=1 / interlaced=0 / bluray_compat=0 / constrained_intra=0 / bframes=12 / b_pyramid=2 / b_adapt=2 / b_bias=0 / direct=3 / weightb=1 / open_gop=0 / weightp=2 / keyint=240 / keyint_min=23 / scenecut=40 / intra_refresh=0 / rc_lookahead=80 / rc=2pass / mbtree=0 / bitrate=2400 / ratetol=1.0 / qcomp=1.00 / qpmin=0 / qpmax=69 / qpstep=4 / cplxblur=20.0 / qblur=1.0 / vbv_maxrate=50000 / vbv_bufsize=50000 / nal_hrd=none / filler=0 / ip_ratio=1.40 / pb_ratio=1.30 / aq=2:0.90
    Language : English
    Default : Yes
    Forced : No

    Audio #1
    ID : 2
    Format : AC-3
    Format/Info : Audio Coding 3
    Mode extension : CM (complete main)
    Format settings, Endianness : Big
    Codec ID : A_AC3
    Duration : 1h 34mn
    Bit rate mode : Constant
    Bit rate : 384 Kbps
    Channel(s) : 6 channels
    Channel positions : Front: L C R, Side: L R, LFE
    Sampling rate : 48.0 KHz
    Compression mode : Lossy
    Stream size : 259 MiB (12%)
    Title : Лицензия/ R5
    Language : Russian
    Default : Yes
    Forced : No

    Audio #2
    ID : 4
    Format : AC-3
    Format/Info : Audio Coding 3
    Mode extension : CM (complete main)
    Format settings, Endianness : Big
    Codec ID : A_AC3
    Duration : 1h 34mn
    Bit rate mode : Constant
    Bit rate : 448 Kbps
    Channel(s) : 6 channels
    Channel positions : Front: L C R, Side: L R, LFE
    Sampling rate : 48.0 KHz
    Compression mode : Lossy
    Stream size : 303 MiB (14%)
    Title : Original
    Language : English
    Default : No
    Forced : No

    Text #1
    ID : 3
    Format : UTF-8
    Codec ID : S_TEXT/UTF8
    Codec ID/Info : UTF-8 Plain Text
    Language : English
    Default : No
    Forced : No

    Text #2
    ID : 5
    Format : UTF-8
    Codec ID : S_TEXT/UTF8
    Codec ID/Info : UTF-8 Plain Text
    Title : Лицензия, R5
    Language : Russian
    Default : No
    Forced : No

    Menu
    00:00:00.000 : en:00:00:00.000
    00:04:29.227 : en:00:04:29.227
    00:09:10.425 : en:00:09:10.425
    00:16:31.574 : en:00:16:31.574
    00:23:10.556 : en:00:23:10.556
    00:28:58.236 : en:00:28:58.236
    00:34:35.907 : en:00:34:35.907
    00:40:38.645 : en:00:40:38.645
    00:45:14.795 : en:00:45:14.795
    00:49:08.696 : en:00:49:08.696
    00:54:54.625 : en:00:54:54.625
    00:59:38.492 : en:00:59:38.492
    01:04:56.476 : en:01:04:56.476
    01:13:30.281 : en:01:13:30.281
    01:19:13.457 : en:01:19:13.457
    01:23:40.140 : en:01:23:40.140
8.3 из 10
голосов: 6
/10
/10
grab777 27-11-2015, 04:40

qzew | 22-08-2015, 22:47 | Статус: Оффлайн

актер ништяцкий из ходячих мертвецов
Информация
Посетители, находящиеся в группе Гости, не могут оставлять комментарии к данной публикации.