Панель пользователя
Регистрация

Воспользуйтесь социальными сетями для входа на https://freerutor.com

vk odnoklassniki facebook mailru yandex google
Популярное
Счетчик
Голосуй за нас
VIP на сайте
Популярное
Товары интернет магазина
загрузка...

Сестры немилосердной войны (2015) IPTVRip

Сестры немилосердной войны (2015) IPTVRip
Участники торрент обмена
Сидов Пиров Скачали
0 0 27
Характеристика
Размер Файлы
366.35 MB
Релиз группа
Поделиться раздачей
Документальный
Оригинальное название: Сестры немилосердной войны
Жанр: Документальный, война, история
Выпущено: Россия / «Кино и Театр»
Режиссер: Александр Искин
Краткое описание: Первая мировая война стала испытанием для России, именно о ней говорили: «Великая Отечественная». Многие женщины тогда стремились на фронт, чтобы воевать с врагом вместе с отцами, мужьями и братьями. Они становились сестрами милосердия и старались попасть ближе к передовой, где их помощь воинам была особенно необходима.
  • Видео: XviD, 1796 Кбит/с, 704x400
    Аудио: АС3, 2 ch, 192 Кбит/с
    Перевод: Не требуется
    Продолжительность: 00:25:38
  • Сестры немилосердной войны (2015) IPTVRip Сестры немилосердной войны (2015) IPTVRip Сестры немилосердной войны (2015) IPTVRip
  • Сестры.немилосердной.войны.2015.XviD.IPTVRip.alf62.avi
    Формат : AVI
    Формат/Информация : Audio Video Interleave
    Размер файла : 366 Мбайт
    Продолжительность : 25 м.
    Общий поток : 1998 Кбит/сек
    Библиотека кодирования : Boilsoft Joiner build 2411/release

    Видео
    Идентификатор : 0
    Формат : MPEG-4 Visual
    Профиль формата : Advanced Simple@L5
    Параметр BVOP формата : 2
    Параметр QPel формата : Нет
    Параметр GMC формата : Без точки перехода
    Параметр матрицы формата : Default (H.263)
    Идентификатор кодека : XVID
    Идентификатор кодека/Подсказка : XviD
    Продолжительность : 25 м.
    Битрейт : 1796 Кбит/сек
    Ширина : 704 пикселя
    Высота : 400 пикселей
    Соотношение сторон : 16:9
    Частота кадров : 25,000 кадров/сек
    Цветовое пространство : YUV
    Субдискретизация насыщенности : 4:2:0
    Битовая глубина : 8 бит
    Тип развёртки : Прогрессивная
    Метод сжатия : С потерями
    Бит/(Пиксели*Кадры) : 0.255
    Размер потока : 329 Мбайт (90%)
    Библиотека кодирования : XviD 73

    Аудио
    Идентификатор : 1
    Формат : AC-3
    Формат/Информация : Audio Coding 3
    Расширение режима : CM (complete main)
    Параметр Endianness формата : Big
    Идентификатор кодека : 2000
    Продолжительность : 25 м.
    Вид битрейта : Постоянный
    Битрейт : 192 Кбит/сек
    Каналы : 2 канала
    Расположение каналов : Front: L R
    Частота : 48,0 КГц
    Битовая глубина : 16 бит
    Метод сжатия : С потерями
    Размер потока : 35,2 Мбайт (10%)
    Выравнивание : Разделение по промежуткам
    Продолжительность промежутка : 40 мс. (1,00 видеокадр)
    Время предзагрузки промежутка : 500 мс.
10.0 из 10
голосов: 1
grab777 19-08-2015, 20:00
Информация
Посетители, находящиеся в группе Гости, не могут оставлять комментарии к данной публикации.