Панель пользователя
Регистрация

Воспользуйтесь социальными сетями для входа на https://freerutor.com

vk odnoklassniki facebook mailru yandex google
Популярное
Счетчик
Голосуй за нас
VIP на сайте
Популярное
Товары интернет магазина
загрузка...

Секс Сейчас / Sex Now (2014) HDTVRip 720p

Секс Сейчас / Sex Now (2014) HDTVRip 720p
Участники торрент обмена
Сидов Пиров Скачали
0 0 539
Характеристика
Размер Файлы
858.68 MB
Поделиться раздачей
Документальный
Название: Секс Сейчас
Оригинальное название: Sex Now
Жанр: Документальный
Выпущено: США / Matador Content, Permanent Wave
Режиссер: Крис Мокарбель
Краткое описание: Сколько стоят запрещенные удовольствия в интернете? И как заработать неплохие деньги на чужих желаниях?
  • Видео: MPEG-4 AVC, 4000 Кбит/с, 1280x720
    Аудио: Русский (AC3, 6 ch, 384 Кбит/с), английский (AC3, 2 ch, 192 Кбит/с)
    Перевод: Профессиональный многоголосый (NOVAMEDiA)
    Продолжительность: 0:26:12
  • Секс Сейчас / Sex Now (2014) HDTVRip 720p Секс Сейчас / Sex Now (2014) HDTVRip 720p Секс Сейчас / Sex Now (2014) HDTVRip 720p
  • General
    Unique ID : 170956770836729969367805930674750444711 (0x809D138FEF4DDFA58B7B7753FB1354A7)
    Complete name : E:uTorrent.TempTempSex.Now.2014.HDTV.720p.x264-RUS-ENG-lrn.mkv
    Format : Matroska
    Format version : Version 4 / Version 2
    File size : 859 MiB
    Duration : 26mn 12s
    Overall bit rate : 4 581 Kbps
    Movie name : Sex.Now.2014.HDTV.720p.x264-RUS-ENG-lrn
    Encoded date : UTC 2010-02-22 21:41:31
    Writing application : mkvmerge v5.9.0 ('On The Loose') built on Dec 9 2012 15:37:01
    Writing library : libebml v1.3.0 + libmatroska v1.4.0
    DURATION : 00:26:12.480000000
    NUMBER_OF_FRAMES : 39312
    NUMBER_OF_BYTES : 786773202
    _STATISTICS_WRITING_APP : mkvmerge v7.7.0 ('Six Voices') 32bit built on Feb 28 2015 23:23:00
    _STATISTICS_WRITING_DATE_UT : 2015-08-15 15:12:32
    _STATISTICS_TAGS : BPS DURATION NUMBER_OF_FRAMES NUMBER_OF_BYTES

    Video
    ID : 1
    Format : AVC
    Format/Info : Advanced Video Codec
    Format profile : High@L4.1
    Format settings, CABAC : Yes
    Format settings, ReFrames : 8 frames
    Codec ID : V_MPEG4/ISO/AVC
    Duration : 26mn 12s
    Bit rate : 4 000 Kbps
    Width : 1 280 pixels
    Height : 720 pixels
    Display aspect ratio : 16:9
    Frame rate mode : Constant
    Frame rate : 25.000 fps
    Color space : YUV
    Chroma subsampling : 4:2:0
    Bit depth : 8 bits
    Scan type : Progressive
    Bits/(Pixel*Frame) : 0.174
    Stream size : 734 MiB (85%)
    Writing library : x264 core 146 r2538 121396c
    Encoding settings : cabac=1 / ref=8 / deblock=1:-3:-3 / analyse=0x3:0x133 / me=umh / subme=9 / psy=1 / psy_rd=1.00:0.00 / mixed_ref=1 / me_range=32 / chroma_me=1 / trellis=2 / 8x8dct=1 / cqm=0 / deadzone=21,11 / fast_pskip=1 / chroma_qp_offset=-2 / threads=12 / lookahead_threads=2 / sliced_threads=0 / nr=0 / decimate=1 / interlaced=0 / bluray_compat=0 / constrained_intra=0 / bframes=8 / b_pyramid=2 / b_adapt=2 / b_bias=0 / direct=3 / weightb=1 / open_gop=0 / weightp=2 / keyint=250 / keyint_min=25 / scenecut=40 / intra_refresh=0 / rc_lookahead=50 / rc=2pass / mbtree=1 / bitrate=4000 / ratetol=1.0 / qcomp=0.60 / qpmin=0 / qpmax=69 / qpstep=4 / cplxblur=20.0 / qblur=0.5 / vbv_maxrate=62500 / vbv_bufsize=78125 / nal_hrd=none / filler=0 / ip_ratio=1.40 / aq=1:1.00
    Default : Yes
    Forced : No

    Audio #1
    ID : 2
    Format : AC-3
    Format/Info : Audio Coding 3
    Mode extension : CM (complete main)
    Format settings, Endianness : Big
    Codec ID : A_AC3
    Duration : 26mn 12s
    Bit rate mode : Constant
    Bit rate : 384 Kbps
    Channel(s) : 6 channels
    Channel positions : Front: L C R, Side: L R, LFE
    Sampling rate : 48.0 KHz
    Compression mode : Lossy
    Stream size : 72.0 MiB (8%)
    Language : Russian
    Default : Yes
    Forced : Yes

    Audio #2
    ID : 3
    Format : AC-3
    Format/Info : Audio Coding 3
    Mode extension : CM (complete main)
    Format settings, Endianness : Big
    Codec ID : A_AC3
    Duration : 26mn 12s
    Bit rate mode : Constant
    Bit rate : 192 Kbps
    Channel(s) : 2 channels
    Channel positions : Front: L R
    Sampling rate : 48.0 KHz
    Compression mode : Lossy
    Stream size : 36.0 MiB (4%)
    Language : English
    Default : No
    Forced : No
7.7 из 10
голосов: 6
grab777 16-08-2015, 18:07

qzew | 23-08-2015, 17:53 | Статус: Оффлайн

кто смотрел ?
Информация
Посетители, находящиеся в группе Гости, не могут оставлять комментарии к данной публикации.