Панель пользователя
Регистрация

Воспользуйтесь социальными сетями для входа на https://freerutor.com

vk odnoklassniki facebook mailru yandex google
Популярное
Счетчик
Голосуй за нас
VIP на сайте
Популярное
Товары интернет магазина
загрузка...

Боцман Чайка (1-4 серия из 4) (2014) HDTV 1080i

Боцман Чайка (1-4 серия из 4) (2014) HDTV 1080i
Участники торрент обмена
Сидов Пиров Скачали
0 0 21
Характеристика
Размер Файлы
11.99 GB
Релиз группа
Поделиться раздачей
Русские сериалы
Оригинальное название: Боцман Чайка
Жанр: Комедия
Выпущено: Россия / Студия «Арт-Базар»
Режиссер: Роман Славин
В ролях: Дмитрий Харатьян, Армен Джигарханян, Ада Роговцева, Нонна Гришаева, Ирина Апексимова, Татьяна Догилева, Дарья Волга, Кристина Бабушкина, Екатерина Дурова, Ольга Тумайкина, Мария Сёмкина, Артём Цуканов, Дарья Мельникова, Леонид Лейкин, Юлия Куварзина, Светлана Зейналова, Виталина Библив, Лаура Кеосаян
Краткое описание: В свой родной город Приморск из очередного рейса возвращается боцман Чайка — бабник и холостяк, не мыслящий жизни без моря. Но, на его беду, пароходство издаёт приказ о том, что все холостые будут списаны на берег. Начальство ставит Чайке условие: чтобы остаться на флоте, боцман должен за две недели найти себе жену.
  • Видео: MPEG-TS AVC, 10 Мбит/с, 1920x1080
    Аудио: MP2, 2 ch, 192 Кбит/с
    Перевод: Не требуется
    Продолжительность: 4 x ~ 00:44:00
  • Боцман Чайка (1-4 серия из 4) (2014) HDTV 1080i Боцман Чайка (1-4 серия из 4) (2014) HDTV 1080i Боцман Чайка (1-4 серия из 4) (2014) HDTV 1080i
  • Общее
    Идентификатор : 1 (0x1)
    Полное имя : F:\Фильмы торренты\Bocman.Chayka.2014.HDTV.(1080i).MediaClub\Bocman.Chayka.(01.seriya.iz.04).2014.HDTV.(1080i).MediaClub.ts
    Формат : MPEG-TS
    Размер файла : 3,12 Гбайт
    Продолжительность : 43 м.
    Режим общего битрейта : Переменный
    Общий поток : 10,2 Мбит/сек

    Видео
    Идентификатор : 201 (0xC9)
    Идентификатор меню : 2201 (0x899)
    Формат : AVC
    Формат/Информация : Advanced Video Codec
    Профиль формата : Main@L4.0
    Параметр CABAC формата : Да
    Параметр ReFrames формата : 4 кадра
    Идентификатор кодека : 27
    Продолжительность : 43 м.
    Битрейт : 9512 Кбит/сек
    Ширина : 1920 пикселей
    Высота : 1080 пикселей
    Соотношение сторон : 16:9
    Частота кадров : 25,000 кадров/сек
    Стандарт вещания : Component
    Цветовое пространство : YUV
    Субдискретизация насыщенности : 4:2:0
    Битовая глубина : 8 бит
    Тип развёртки : Чересстрочная
    Порядок развёртки : Верхнее поле первое
    Бит/(Пиксели*Кадры) : 0.183
    Размер потока : 2,91 Гбайт (93%)
    Основные цвета : BT.709
    Характеристики трансфера : BT.709
    Коэффициенты матрицы : BT.709

    Аудио
    Идентификатор : 301 (0x12D)
    Идентификатор меню : 2201 (0x899)
    Формат : MPEG Audio
    Версия формата : Version 1
    Профиль формата : Layer 2
    Идентификатор кодека : 3
    Продолжительность : 43 м.
    Вид битрейта : Постоянный
    Битрейт : 192 Кбит/сек
    Каналы : 2 канала
    Частота : 48,0 КГц
    Метод сжатия : С потерями
    Задержка видео : -120 мс.
    Размер потока : 60,0 Мбайт (2%)
    Язык : English
5.5 из 10
голосов: 2
/10
/10
grab777 10-08-2015, 02:27
Информация
Посетители, находящиеся в группе Гости, не могут оставлять комментарии к данной публикации.