Панель пользователя
Регистрация

Воспользуйтесь социальными сетями для входа на https://freerutor.com

vk odnoklassniki facebook mailru yandex google
Популярное
Счетчик
Голосуй за нас
VIP на сайте
Популярное
Товары интернет магазина
загрузка...

Наследники / Descendants (2015) WEB-DLRip-AVC

Наследники / Descendants (2015) WEB-DLRip-AVC
Участники торрент обмена
Сидов Пиров Скачали
0 0 6031
Характеристика
Размер Файлы
1.45 GB
Поделиться раздачей
Фильмы (AVC)
Название: Наследники
Оригинальное название: Descendants
Жанр: Фэнтези, боевик, комедия, приключения
Выпущено: США / Disney Channel
Режиссер: Кенни Ортега
В ролях: Дав Камерон, Кэмерон Бойс, Бу Бу Стюарт, Sofia Carson, Митчелл Хоуп, Мелани Пакссон, Бренна Д’Амико, Сара Джеффри, Zachary Gibson, Джедидайя Гудакр
Краткое описание: После прихода к власти молодой монарх выдает новый указ — «амнистию», по которой всем наследникам известных злодеев, которые находятся в заточении на острове, дается второй шанс. Всех отправляют в школу, в которой учатся дети Белоснежки, Рапунцель и других позитивных героев. Тут второму поколению предстоит определить для себя — продолжать дело родителей, или же начать все с чистого листа.
  • Видео: MPEG-4 AVC, 1650 kb/s, 1024x576
    Аудио: AC3, 2 ch, 192 Кбит/с
    Перевод: Любительский многоголосый [StoryFilmTV & Ananas]
    Продолжительность: 01:52:00
  • Наследники / Descendants (2015) WEB-DLRip-AVC Наследники / Descendants (2015) WEB-DLRip-AVC Наследники / Descendants (2015) WEB-DLRip-AVC
  • General
    Unique ID : 67079108761699125273818683231284788497 (0x3276F76758C572BA45BA154029107D11)
    Complete name : F:Наследники.(2015.).WEB-DLRip_AVC.[-=DoMiNo=-].mkv
    Format : Matroska
    Format version : Version 4 / Version 2
    File size : 1.45 GiB
    Duration : 1h 52mn
    Overall bit rate : 1 859 Kbps
    Movie name : Наследники
    Writing application : XviD4PSP 7.0.157
    Writing library : Lavf56.25.101
    ORIGINAL_TITLE : Descendants
    DATE : 2015
    GENRE : фэнтези, боевик, комедия, приключения
    ENCODING_INFO : MATROSKA,WEBM > MKV / H264 > X264 VBR-2P 1662kbps Custom / MP3 > AC3 CBR 192kbps
    DEION : После прихода к власти молодой монарх выдает новый указ — «амнистию», по которой всем наследникам известных злодеев, которые находятся в заточении на острове, дается второй шанс. Всех отправляют в школу, в которой учатся дети Белоснежки, Рапунцель и других позитивных героев. Тут второму поколению предстоит определить для себя — продолжать дело родителей, или же начать все с чистого листа.
    ACTORS : Дав Камерон, Кэмерон Бойс, Бу Бу Стюарт, Sofia Carson, Митчелл Хоуп, Мелани Пакссон, Бренна Д’Амико, Сара Джеффри, Zachary Gibson, Джедидайя Гудакр, Ирина Обрезкова, Елизавета Захарьева, показать всех
    DIRECTOR : Кенни Ортега
    PRODUCER : Трэйси Джеффри, Джуди Тейлор
    WRITER : Джосанн МакГибон, Сара Пэрриотт
    COUNTRY : США
    RATING : 5.563
    Language : und
    FILENAME : cover.png
    Attachements : cover.png

    Video
    ID : 1
    Format : AVC
    Format/Info : Advanced Video Codec
    Format profile : High@L4.1
    Format settings, CABAC : Yes
    Format settings, ReFrames : 10 frames
    Codec ID : V_MPEG4/ISO/AVC
    Duration : 1h 52mn
    Bit rate : 1 662 Kbps
    Width : 1 024 pixels
    Height : 576 pixels
    Display aspect ratio : 16:9
    Frame rate mode : Constant
    Frame rate : 23.976 fps
    Color space : YUV
    Chroma subsampling : 4:2:0
    Bit depth : 8 bits
    Scan type : Progressive
    Bits/(Pixel*Frame) : 0.118
    Stream size : 1.28 GiB (88%)
    Writing library : x264 core 146 r2538M 121396c
    Encoding settings : cabac=1 / ref=10 / deblock=1:-3:-3 / analyse=0x3:0x133 / me=umh / subme=9 / psy=1 / psy_rd=1,00:0,20 / mixed_ref=1 / me_range=32 / chroma_me=1 / trellis=2 / 8x8dct=1 / cqm=0 / deadzone=21,11 / fast_pskip=0 / chroma_qp_offset=-3 / threads=6 / lookahead_threads=1 / sliced_threads=0 / nr=0 / decimate=1 / interlaced=0 / bluray_compat=0 / constrained_intra=0 / bframes=9 / b_pyramid=2 / b_adapt=2 / b_bias=0 / direct=3 / weightb=1 / open_gop=0 / weightp=2 / keyint=230 / keyint_min=23 / scenecut=40 / intra_refresh=0 / rc=2pass / mbtree=0 / bitrate=1662 / ratetol=1,0 / qcomp=0,60 / qpmin=0 / qpmax=69 / qpstep=4 / cplxblur=20,0 / qblur=0,5 / ip_ratio=1,40 / pb_ratio=1,30 / aq=1:1,00
    Default : Yes
    Forced : No

    Audio
    ID : 2
    Format : AC-3
    Format/Info : Audio Coding 3
    Mode extension : CM (complete main)
    Format settings, Endianness : Big
    Codec ID : A_AC3
    Duration : 1h 52mn
    Bit rate mode : Constant
    Bit rate : 192 Kbps
    Channel(s) : 2 channels
    Channel positions : Front: L R
    Sampling rate : 48.0 KHz
    Bit depth : 16 bits
    Compression mode : Lossy
    Delay relative to video : 27ms
    Stream size : 154 MiB (10%)
    Default : Yes
    Forced : No
4.7 из 10
голосов: 3
/10
/10
Раздачу отредактировал: grab777 - 10-08-2015, 00:44
grab777 9-08-2015, 20:43
Информация
Посетители, находящиеся в группе Гости, не могут оставлять комментарии к данной публикации.