Панель пользователя
Регистрация

Воспользуйтесь социальными сетями для входа на https://freerutor.com

vk odnoklassniki facebook mailru yandex google
Популярное
Счетчик
Голосуй за нас
VIP на сайте
Популярное
Товары интернет магазина
загрузка...

Суперфорсаж! / Superfast! (2015) BDRip 1080p | Лицензия

Суперфорсаж! / Superfast! (2015) BDRip 1080p | Лицензия
Участники торрент обмена
Сидов Пиров Скачали
0 0 978
Характеристика
Размер Файлы
7.96 GB
Поделиться раздачей
Фильмы (720,1080,Blu-Ray)
Название: Суперфорсаж!
Оригинальное название: Superfast!
Жанр: комедия
Выпущено: США / 3 in the Box, Safran Company
Режиссер: Джейсон Фридберг, Аарон Зельцер
В ролях: Алекс Ашбаух, Дэйл Павински, Лили Мирожник, Андреа Наведо, Дэниэл Буко, Дио Джонсон, Шантель Вислэвски, Джозеф Джулиан Сория, Гонсало Менендес, Омар Чапарро
Краткое описание: Вин Дрозель — уличный гонщик, который не представляет свою жизнь без скорости. Он настоящий профессионал и соревнуется только с лучшими гонщиками, а также является главарем преступной группировки. Полиция потратила много сил для того, что бы положить конец их злодеяниям, однако так и не смогла добиться положительного результата. Тогда было принято решение внедрить в банду одного из полицейских, но для этого он должен был быть отличным гонщиком, поскольку Вин Дрозель принимает в свою семью только лучших водителей. Таким парнем становится белый коп, который когда-то был влюблен в Белоснежку и имеет способность замораживать майонез на палочке. Он довольно легко становится членом банды, но сможет ли он положить конец их преступлениям?..
  • Видео: MPEG-4 AVC/H.264, 1920x1080 (16:9), 9 581 kbps, 24.000 fps, 0.193 b/px
    Аудио # 1: АС3, 6 ch, 384 kbps, 48 000 Hz - DUB - iTunes
    Аудио # 2: DTS, 6 ch, 1509 kbps, 48 000 Hz - Original - English
    Перевод: профессиональный (полное дублирование) (iTunes)
    Субтитры: отсутствуют
    Продолжительность: 01:39:18
  • Суперфорсаж! / Superfast! (2015) BDRip 1080p | Лицензия Суперфорсаж! / Superfast! (2015) BDRip 1080p | Лицензия Суперфорсаж! / Superfast! (2015) BDRip 1080p | Лицензия
  • Общее
    Уникальный идентификатор : 254935281353457262057607000061463049829 (0xBFCABFCD23E33B73B41E278FB0293665)
    Полное имя : F:\[2015] Superfast! [BDRip] [1080p].mkv
    Формат : Matroska
    Версия формата : Version 4 / Version 2
    Размер файла : 7,96 Гбайт
    Продолжительность : 1 ч. 39 м.
    Общий поток : 11,5 Мбит/сек
    Название фильма : Суперфорсаж! / Superfast! (2015) BDRip [1080p]
    Дата кодирования : UTC 2015-08-09 08:33:19
    Программа кодирования : mkvmerge v7.8.0 ('River Man') 32bit built on Mar 27 2015 16:18:02
    Библиотека кодирования : libebml v1.3.1 + libmatroska v1.4.2
    _STATISTICS_WRITING_APP : mkvmerge v7.8.0 ('River Man') 32bit built on Mar 27 2015 16:18:02
    _STATISTICS_WRITING_DATE_UTC : 2015-08-09 08:33:19
    _STATISTICS_TAGS : BPS DURATION NUMBER_OF_FRAMES NUMBER_OF_BYTES
    DURATION : 01:39:18.965000000
    NUMBER_OF_FRAMES : 558653
    NUMBER_OF_BYTES : 1124009836

    Видео
    Идентификатор : 1
    Формат : AVC
    Формат/Информация : Advanced Video Codec
    Профиль формата : High@L4.1
    Параметр CABAC формата : Да
    Параметр ReFrames формата : 8 кадров
    Идентификатор кодека : V_MPEG4/ISO/AVC
    Продолжительность : 1 ч. 39 м.
    Битрейт : 9581 Кбит/сек
    Ширина : 1920 пикселей
    Высота : 1080 пикселей
    Соотношение сторон : 16:9
    Режим частоты кадров : Постоянный
    Частота кадров : 24,000 кадра/сек
    Цветовое пространство : YUV
    Субдискретизация насыщенности : 4:2:0
    Битовая глубина : 8 бит
    Тип развёртки : Прогрессивная
    Бит/(Пиксели*Кадры) : 0.193
    Размер потока : 6,49 Гбайт (82%)
    Заголовок : [2015] Суперфорсаж! / Superfast! [BDRip] [1080p]
    Библиотека кодирования : x264 core 130 r2273 b3065e6
    Настройки программы : cabac=1 / ref=8 / deblock=1:-1:-1 / analyse=0x3:0x113 / me=umh / subme=7 / psy=1 / psy_rd=1.00:0.00 / mixed_ref=1 / me_range=32 / chroma_me=1 / trellis=2 / 8x8dct=1 / cqm=0 / deadzone=21,11 / fast_pskip=1 / chroma_qp_offset=-2 / threads=12 / lookahead_threads=3 / sliced_threads=0 / nr=0 / decimate=1 / interlaced=0 / bluray_compat=0 / constrained_intra=0 / bframes=6 / b_pyramid=2 / b_adapt=2 / b_bias=0 / direct=3 / weightb=1 / open_gop=0 / weightp=2 / keyint=240 / keyint_min=24 / scenecut=40 / intra_refresh=0 / rc_lookahead=40 / rc=2pass / mbtree=1 / bitrate=9581 / ratetol=1.0 / qcomp=0.60 / qpmin=0 / qpmax=69 / qpstep=4 / cplxblur=20.0 / qblur=0.5 / ip_ratio=1.40 / aq=1:1.00
    Язык : English
    Default : Да
    Forced : Нет
    Цветовой диапазон : Limited
    Основные цвета : BT.709
    Характеристики трансфера : BT.709
    Коэффициенты матрицы : BT.709

    Аудио #1
    Идентификатор : 2
    Формат : AC-3
    Формат/Информация : Audio Coding 3
    Расширение режима : CM (complete main)
    Параметр Endianness формата : Big
    Идентификатор кодека : A_AC3
    Продолжительность : 1 ч. 39 м.
    Вид битрейта : Постоянный
    Битрейт : 384 Кбит/сек
    Каналы : 6 каналов
    Расположение каналов : Front: L C R, Side: L R, LFE
    Частота : 48,0 КГц
    Метод сжатия : С потерями
    Размер потока : 273 Мбайт (3%)
    Заголовок : DUB - iTunes
    Язык : Russian
    Default : Да
    Forced : Нет

    Аудио #2
    Идентификатор : 3
    Формат : DTS
    Формат/Информация : Digital Theater Systems
    Режим : 16
    Параметр Endianness формата : Big
    Идентификатор кодека : A_DTS
    Продолжительность : 1 ч. 39 м.
    Вид битрейта : Постоянный
    Битрейт : 1509 Кбит/сек
    Каналы : 6 каналов
    Расположение каналов : Front: L C R, Side: L R, LFE
    Частота : 48,0 КГц
    Битовая глубина : 24 бит
    Метод сжатия : С потерями
    Размер потока : 1,05 Гбайт (13%)
    Заголовок : Original
    Язык : English
    Default : Нет
    Forced : Нет
7.0 из 10
голосов: 3
/10
/10
Kavasar 9-08-2015, 12:21
Информация
Посетители, находящиеся в группе Гости, не могут оставлять комментарии к данной публикации.