Панель пользователя
Регистрация

Воспользуйтесь социальными сетями для входа на https://freerutor.com

vk odnoklassniki facebook mailru yandex google
Популярное
Счетчик
Голосуй за нас
VIP на сайте
Популярное
Товары интернет магазина
загрузка...

Разборки в маленьком Токио / Showdown in Little Tokyo (1991) BDRip 720p

Разборки в маленьком Токио / Showdown in Little Tokyo (1991) BDRip 720p
Участники торрент обмена
Сидов Пиров Скачали
0 0 19
Характеристика
Размер Файлы
10.80 GB
Поделиться раздачей
Фильмы (720,1080,Blu-Ray)
Название: Разборки в маленьком Токио
Оригинальное название: Showdown in Little Tokyo
Жанр: боевик, триллер, комедия, криминал
Выпущено: США / Little Tokyo Productions, Original Pictures, Warner Bros.
Режиссер: Марк Л. Лестер
В ролях: Дольф Лундгрен, Брэндон Ли, Кэри-Хироюки Тагава, Тиа Каррере, Тоширо Обата, Филип Тан, Родни Кагеяма, Эрни Лайвли, Рене Гриффин, Рейд Асато
Краткое описание: Лос-Анджелес. 1980-е годы.… В Маленьком Токио работает полицейский Крис Кеннер, который изо всех сил борется с организованной преступностью. Крис навсегда запомнил лицо преступника из якудзы, который убил его родителей, ворвавшись к ним в дом. Крис получает от начальства нового напарника по имени Джонни Мурату. У Джонни в крови хоть и есть японские гены, но жил и воспитывался он в Америке, поэтому воспитан по американской культуре. Поначалу они не могли ужиться вместе, но совместное дело и разборки, дают им повод узнать друг друга лучше. После убийства одной танцовщицы в клубе, а также распространение нового наркотика метамфетамина, дают им след на клан якудзы и его лидера Ёсиды. Крис узнает в Ёсиде убийцу своих родителей…
  • Видео: MPEG-4 AVC/H.264, 1280x720 (16:9), 13 500 kbps, 23.976 fps, 0.611 b/px
    Аудио # 1: АС3, 2 ch, 192 kbps, 48 000 Hz - DUB - «Мост-Видео»
    Аудио # 2: АС3, 2 ch, 192 kbps, 48 000 Hz - DUB - «Варус-Видео»
    Аудио # 3: АС3, 2 ch, 192 kbps, 48 000 Hz - MVO - «ВГТРК»
    Аудио # 4: АС3, 2 ch, 192 kbps, 48 000 Hz - DVO - «НТВ»
    Аудио # 5: DTS, 2 ch, 1509 kbps, 48 000 Hz - AVO - А.Гаврилов
    Аудио # 6: DTS, 2 ch, 1509 kbps, 48 000 Hz - AVO - Л.Володарский
    Аудио # 7: АС3, 2 ch, 192 kbps, 48 000 Hz - AVO - С.Кузнецов
    Аудио # 8: АС3, 2 ch, 192 kbps, 48 000 Hz - AVO - М.Чадов
    Аудио # 9: АС3, 2 ch, 192 kbps, 48 000 Hz - VO - С.Зереницын (Белов)
    Аудио # 10: АС3, 2 ch, 192 kbps, 48 000 Hz - MVO - «IНТЕР» - Украинский
    Аудио # 11: АС3, 2 ch, 192 kbps, 48 000 Hz - MVO - «ICTV» - Украинский
    Аудио # 12: DTS, 2 ch, 1509 kbps, 48 000 Hz - Original - English
    Перевод: профессиональный (полное дублирование), профессиональный (многоголосый закадровый), профессиональный (двухголосый закадровый), авторский (одноголосый закадровый), любительский
    Язык субтитров: русский, английский
    Вид субтитров: вшитые, отключаемые
    Продолжительность: 01:18:21
  • Разборки в маленьком Токио / Showdown in Little Tokyo (1991) BDRip 720p Разборки в маленьком Токио / Showdown in Little Tokyo (1991) BDRip 720p Разборки в маленьком Токио / Showdown in Little Tokyo (1991) BDRip 720p
  • x264 [info]: frame I:842 Avg QP:15.35 size:172161
    x264 [info]: frame P:24068 Avg QP:17.18 size: 96597
    x264 [info]: frame B:87794 Avg QP:19.13 size: 62082
    x264 [info]: consecutive B-frames: 2.0% 2.8% 10.9% 12.6% 14.0% 46.6% 5.0% 1.6% 1.1% 1.2% 0.9% 0.7% 0.7%
    x264 [info]: kb/s:13479.34

    encoded 112704 frames, 5.68 fps, 13479.34 kb/s, duration 5:30:25.79

    Общее
    Уникальный идентификатор : 233148312086628106232635524624285328348 (0xAF66BB485FE180BBA7718540196A63DC)
    Полное имя : D:\[1991] Showdown in Little Tokyo [BDRip] [720p].mkv
    Формат : Matroska
    Версия формата : Version 4 / Version 2
    Размер файла : 10,8 Гбайт
    Продолжительность : 1 ч. 18 м.
    Общий поток : 19,7 Мбит/сек
    Название фильма : Разборки в маленьком Токио / Showdown in Little Tokyo (1991) BDRip [720p]
    Дата кодирования : UTC 2015-08-07 20:33:27
    Программа кодирования : mkvmerge v7.8.0 ('River Man') 32bit built on Mar 27 2015 16:18:02
    Библиотека кодирования : libebml v1.3.1 + libmatroska v1.4.2
    _STATISTICS_WRITING_APP : mkvmerge v7.8.0 ('River Man') 32bit built on Mar 27 2015 16:18:02
    _STATISTICS_WRITING_DATE_UTC : 2015-08-07 20:33:27
    _STATISTICS_TAGS : BPS DURATION NUMBER_OF_FRAMES NUMBER_OF_BYTES
    DURATION : 01:12:45.361000000
    NUMBER_OF_FRAMES : 645
    NUMBER_OF_BYTES : 20282

    Видео
    Идентификатор : 1
    Формат : AVC
    Формат/Информация : Advanced Video Codec
    Профиль формата : High@L4.1
    Параметр CABAC формата : Да
    Параметр ReFrames формата : 9 кадров
    Идентификатор кодека : V_MPEG4/ISO/AVC
    Продолжительность : 1 ч. 18 м.
    Битрейт : 13,5 Мбит/сек
    Ширина : 1280 пикселей
    Высота : 720 пикселей
    Соотношение сторон : 16:9
    Режим частоты кадров : Постоянный
    Частота кадров : 23,976 кадра/сек
    Цветовое пространство : YUV
    Субдискретизация насыщенности : 4:2:0
    Битовая глубина : 8 бит
    Тип развёртки : Прогрессивная
    Бит/(Пиксели*Кадры) : 0.611
    Размер потока : 7,16 Гбайт (66%)
    Заголовок : [1991] Разборки в маленьком Токио / Showdown in Little Tokyo [BDRip] [720p]
    Библиотека кодирования : x264 core 148 r2579kMod 73ae2d1
    Настройки программы : cabac=1 / ref=9 / deblock=1:-3:-3 / analyse=0x3:0x113 / me=umh / subme=10 / psy=1 / fade_compensate=0.00 / psy_rd=1.15:0.00 / mixed_ref=1 / me_range=16 / chroma_me=1 / trellis=2 / 8x8dct=1 / cqm=0 / deadzone=21,11 / fast_pskip=0 / chroma_qp_offset=-2 / threads=6 / lookahead_threads=1 / sliced_threads=0 / nr=0 / decimate=0 / interlaced=0 / bluray_compat=0 / constrained_intra=0 / fgo=0 / bframes=12 / b_pyramid=2 / b_adapt=2 / b_bias=0 / direct=3 / weightb=1 / open_gop=0 / weightp=2 / keyint=250 / keyint_min=23 / scenecut=40 / intra_refresh=0 / rc=2pass / mbtree=0 / bitrate=13490 / ratetol=1.0 / qcomp=0.60 / qpmin=0 / qpmax=69 / qpstep=4 / cplxblur=20.0 / qblur=0.5 / ip_ratio=1.40 / pb_ratio=1.30 / aq=2:0.80
    Язык : English
    Default : Да
    Forced : Нет
    Цветовой диапазон : Limited
    Основные цвета : BT.709
    Характеристики трансфера : BT.709
    Коэффициенты матрицы : BT.709
    _STATISTICS_WRITING_APP : mkvmerge v7.8.0 ('River Man') 32bit built on Mar 27 2015 16:18:02
    _STATISTICS_WRITING_DATE_UTC : 2015-08-07 20:33:27
    _STATISTICS_TAGS : BPS DURATION NUMBER_OF_FRAMES NUMBER_OF_BYTES
    DURATION : 01:18:20.696000000
    NUMBER_OF_FRAMES : 112704
    NUMBER_OF_BYTES : 7920284411

    Аудио #1
    Идентификатор : 2
    Формат : AC-3
    Формат/Информация : Audio Coding 3
    Расширение режима : CM (complete main)
    Параметр Endianness формата : Big
    Идентификатор кодека : A_AC3
    Продолжительность : 1 ч. 18 м.
    Вид битрейта : Постоянный
    Битрейт : 192 Кбит/сек
    Каналы : 2 канала
    Расположение каналов : Front: L R
    Частота : 48,0 КГц
    Метод сжатия : С потерями
    Размер потока : 108 Мбайт (1%)
    Заголовок : DUB - «Мост-Видео»
    Язык : Russian
    Default : Да
    Forced : Нет

    Аудио #2
    Идентификатор : 3
    Формат : AC-3
    Формат/Информация : Audio Coding 3
    Расширение режима : CM (complete main)
    Параметр Endianness формата : Big
    Идентификатор кодека : A_AC3
    Продолжительность : 1 ч. 18 м.
    Вид битрейта : Постоянный
    Битрейт : 192 Кбит/сек
    Каналы : 2 канала
    Расположение каналов : Front: L R
    Частота : 48,0 КГц
    Метод сжатия : С потерями
    Размер потока : 108 Мбайт (1%)
    Заголовок : DUB - «Варус-Видео»
    Язык : Russian
    Default : Нет
    Forced : Нет

    Аудио #3
    Идентификатор : 4
    Формат : AC-3
    Формат/Информация : Audio Coding 3
    Расширение режима : CM (complete main)
    Параметр Endianness формата : Big
    Идентификатор кодека : A_AC3
    Продолжительность : 1 ч. 18 м.
    Вид битрейта : Постоянный
    Битрейт : 192 Кбит/сек
    Каналы : 2 канала
    Расположение каналов : Front: L R
    Частота : 48,0 КГц
    Метод сжатия : С потерями
    Размер потока : 108 Мбайт (1%)
    Заголовок : MVO - «ВГТРК»
    Язык : Russian
    Default : Нет
    Forced : Нет

    Аудио #4
    Идентификатор : 5
    Формат : AC-3
    Формат/Информация : Audio Coding 3
    Расширение режима : CM (complete main)
    Параметр Endianness формата : Big
    Идентификатор кодека : A_AC3
    Продолжительность : 1 ч. 18 м.
    Вид битрейта : Постоянный
    Битрейт : 192 Кбит/сек
    Каналы : 2 канала
    Расположение каналов : Front: L R
    Частота : 48,0 КГц
    Метод сжатия : С потерями
    Размер потока : 108 Мбайт (1%)
    Заголовок : DVO - «НТВ»
    Язык : Russian
    Default : Нет
    Forced : Нет

    Аудио #5
    Идентификатор : 6
    Формат : DTS
    Формат/Информация : Digital Theater Systems
    Режим : 16
    Параметр Endianness формата : Big
    Идентификатор кодека : A_DTS
    Продолжительность : 1 ч. 18 м.
    Вид битрейта : Постоянный
    Битрейт : 1509 Кбит/сек
    Каналы : 2 канала
    Расположение каналов : Front: L R
    Частота : 48,0 КГц
    Битовая глубина : 24 бит
    Метод сжатия : С потерями
    Размер потока : 846 Мбайт (8%)
    Заголовок : AVO - А.Гаврилов
    Язык : Russian
    Default : Нет
    Forced : Нет

    Аудио #6
    Идентификатор : 7
    Формат : DTS
    Формат/Информация : Digital Theater Systems
    Режим : 16
    Параметр Endianness формата : Big
    Идентификатор кодека : A_DTS
    Продолжительность : 1 ч. 18 м.
    Вид битрейта : Постоянный
    Битрейт : 1509 Кбит/сек
    Каналы : 2 канала
    Расположение каналов : Front: L R
    Частота : 48,0 КГц
    Битовая глубина : 24 бит
    Метод сжатия : С потерями
    Размер потока : 846 Мбайт (8%)
    Заголовок : AVO - Л.Володарский
    Язык : Russian
    Default : Нет
    Forced : Нет

    Аудио #7
    Идентификатор : 8
    Формат : AC-3
    Формат/Информация : Audio Coding 3
    Расширение режима : CM (complete main)
    Параметр Endianness формата : Big
    Идентификатор кодека : A_AC3
    Продолжительность : 1 ч. 18 м.
    Вид битрейта : Постоянный
    Битрейт : 192 Кбит/сек
    Каналы : 2 канала
    Расположение каналов : Front: L R
    Частота : 48,0 КГц
    Метод сжатия : С потерями
    Размер потока : 108 Мбайт (1%)
    Заголовок : AVO - С.Кузнецов
    Язык : Russian
    Default : Нет
    Forced : Нет

    Аудио #8
    Идентификатор : 9
    Формат : AC-3
    Формат/Информация : Audio Coding 3
    Расширение режима : CM (complete main)
    Параметр Endianness формата : Big
    Идентификатор кодека : A_AC3
    Продолжительность : 1 ч. 18 м.
    Вид битрейта : Постоянный
    Битрейт : 192 Кбит/сек
    Каналы : 2 канала
    Расположение каналов : Front: L R
    Частота : 48,0 КГц
    Метод сжатия : С потерями
    Размер потока : 108 Мбайт (1%)
    Заголовок : AVO - М.Чадов
    Язык : Russian
    Default : Нет
    Forced : Нет

    Аудио #9
    Идентификатор : 10
    Формат : AC-3
    Формат/Информация : Audio Coding 3
    Расширение режима : CM (complete main)
    Параметр Endianness формата : Big
    Идентификатор кодека : A_AC3
    Продолжительность : 1 ч. 18 м.
    Вид битрейта : Постоянный
    Битрейт : 192 Кбит/сек
    Каналы : 2 канала
    Расположение каналов : Front: L R
    Частота : 48,0 КГц
    Метод сжатия : С потерями
    Размер потока : 108 Мбайт (1%)
    Заголовок : VO - С.Зереницын (Белов)
    Язык : Russian
    Default : Нет
    Forced : Нет

    Аудио #10
    Идентификатор : 11
    Формат : AC-3
    Формат/Информация : Audio Coding 3
    Расширение режима : CM (complete main)
    Параметр Endianness формата : Big
    Идентификатор кодека : A_AC3
    Продолжительность : 1 ч. 18 м.
    Вид битрейта : Постоянный
    Битрейт : 192 Кбит/сек
    Каналы : 2 канала
    Расположение каналов : Front: L R
    Частота : 48,0 КГц
    Метод сжатия : С потерями
    Размер потока : 108 Мбайт (1%)
    Заголовок : MVO - «IНТЕР»
    Язык : Ukrainian
    Default : Нет
    Forced : Нет

    Аудио #11
    Идентификатор : 12
    Формат : AC-3
    Формат/Информация : Audio Coding 3
    Расширение режима : CM (complete main)
    Параметр Endianness формата : Big
    Идентификатор кодека : A_AC3
    Продолжительность : 1 ч. 18 м.
    Вид битрейта : Постоянный
    Битрейт : 192 Кбит/сек
    Каналы : 2 канала
    Расположение каналов : Front: L R
    Частота : 48,0 КГц
    Метод сжатия : С потерями
    Размер потока : 108 Мбайт (1%)
    Заголовок : MVO - «ICTV»
    Язык : Ukrainian
    Default : Нет
    Forced : Нет

    Аудио #12
    Идентификатор : 13
    Формат : DTS
    Формат/Информация : Digital Theater Systems
    Режим : 16
    Параметр Endianness формата : Big
    Идентификатор кодека : A_DTS
    Продолжительность : 1 ч. 18 м.
    Вид битрейта : Постоянный
    Битрейт : 1509 Кбит/сек
    Каналы : 2 канала
    Расположение каналов : Front: L R
    Частота : 48,0 КГц
    Битовая глубина : 24 бит
    Метод сжатия : С потерями
    Размер потока : 846 Мбайт (8%)
    Заголовок : Original
    Язык : English
    Default : Нет
    Forced : Нет

    Текст #1
    Идентификатор : 14
    Формат : UTF-8
    Идентификатор кодека : S_TEXT/UTF8
    Идентификатор кодека/Информация : UTF-8 Plain Text
    Заголовок : Russian
    Язык : Russian
    Default : Нет
    Forced : Нет

    Текст #2
    Идентификатор : 15
    Формат : UTF-8
    Идентификатор кодека : S_TEXT/UTF8
    Идентификатор кодека/Информация : UTF-8 Plain Text
    Заголовок : English
    Язык : English
    Default : Нет
    Forced : Нет

    Меню
    00:00:00.000 : en:Credits over tattoos.
    00:02:33.027 : :Kenner takes in the fights.
    00:05:41.132 : en:Matsuno's you new partner.
    00:09:56.762 : en:Headquarters; suspect lost.
    00:12:54.273 : en:Yoshida doles out death.
    00:17:36.263 : en:The Bonsai Club.
    00:24:49.154 : en:"This is not the way."
    00:30:00.632 : en:Beauty possessed -- and rescued by Kenner.
    00:33:36.556 : en:"Bring me the head of the blond cop."
    00:39:01.505 : en:Bathhouse brawl.
    00:41:37.912 : en:Kenner's house.
    00:48:23.233 : en:From hot tub to bedroom.
    00:50:04.751 : en:Under siege.
    00:53:21.907 : en:Mastering the Master of Pain.
    00:56:44.067 : en:Heavy metal suhi.
    00:59:01.037 : en:Storming the brewery.
    01:02:26.075 : en:Sato gets distilled.
    01:06:58.639 : en:Inferno.
    01:09:47.850 : en:Showdown in Little Tokyo.
    01:11:10.975 : en:Community relations.
    01:15:19.306 : en:End Credits.
10.0 из 10
голосов: 1
/10
/10
Kavasar 8-08-2015, 01:08
Информация
Посетители, находящиеся в группе Гости, не могут оставлять комментарии к данной публикации.