Панель пользователя
Регистрация

Воспользуйтесь социальными сетями для входа на https://freerutor.com

vk odnoklassniki facebook mailru yandex google
Популярное
Счетчик
Голосуй за нас
VIP на сайте
Популярное
Товары интернет магазина
загрузка...

Парфюмер: История одного убийцы / Perfume: The Story of a Murderer (2006) BDRip 1080p

Парфюмер: История одного убийцы / Perfume: The Story of a Murderer (2006) BDRip 1080p
Участники торрент обмена
Сидов Пиров Скачали
0 0 25
Характеристика
Размер Файлы
17.89 GB
Поделиться раздачей
Фильмы (720,1080,Blu-Ray)
Название: Парфюмер: История одного убийцы
Оригинальное название: Perfume: The Story of a Murderer
Жанр: фэнтези, драма, криминал
Выпущено: Германия, Франция, Испания, США / Constantin Film Produktion, VIP 4 Medienfonds, Nouvelles Éditions de Films (NEF)
Режиссер: Том Тыквер
В ролях: Бен Уишоу, Дастин Хоффман, Алан Рикман, Рейчел Херд-Вуд, Биргит Минихмайр, Шан Томас, Тимоти Дэвис, Дора Романо, Сара Форестье, Дэвид Колдер
Краткое описание: Жан-Батист Гренуй — одинокий сирота, всеми брошенный и забытый миром, он вынужден побираться и браться за самую грязную работу. Но у него абсолютное обоняние, и это принесёт ему в итоге славу великого парфюмера, но какой ценой. Сильные мира сего будут сходить с ума от его божественных парфюмов, толпы будут в его власти, пока не откроется страшная тайна...
Эта шокирующая фэнтези-драма вышла в мировой прокат 7 сентября 2006 года, и в буквальном смысле слова потрясла мир. Характерно что данная лента не оставила зрителей равнодушными, их мнения кардинально разделились. Одним она безумно понравилась, а другим, которых немало, она показалась отвратительной.
  • Видео: MPEG-4 AVC/H.264, 1916x816 (2,35:1), 12 900 kbps, 23.976 fps, 0.343 b/px
    Аудио # 1: DTS, 6 ch, 755 kbps, 48 000 Hz - DUB - «R5»
    Аудио # 2: DTS, 6 ch, 1509 kbps, 48 000 Hz - AVO - Ю.Немахов
    Аудио # 3: АС3, 6 ch, 384 kbps, 48 000 Hz - DUB - «R5» - Украинский
    Аудио # 4: DTS, 6 ch, 1509 kbps, 48 000 Hz - Original - English
    Перевод: профессиональный (полное дублирование), авторский (одноголосый закадровый)
    Язык субтитров: русский, английский
    Вид субтитров: вшитые, отключаемые
    Продолжительность: 02:27:25
  • Парфюмер: История одного убийцы / Perfume: The Story of a Murderer (2006) BDRip 1080p Парфюмер: История одного убийцы / Perfume: The Story of a Murderer (2006) BDRip 1080p Парфюмер: История одного убийцы / Perfume: The Story of a Murderer (2006) BDRip 1080p
  • Общее
    Уникальный идентификатор : 183668614897523662986230165127757485743 (0x8A2D49DCF0A3C4939751A4D59392D6AF)
    Полное имя : F:\[2006] Парфюмер. История одного убийцы [BDRip] [1080p].mkv
    Формат : Matroska
    Версия формата : Version 4 / Version 2
    Размер файла : 17,9 Гбайт
    Продолжительность : 2 ч. 27 м.
    Общий поток : 17,4 Мбит/сек
    Название фильма : Парфюмер: История одного убийцы / Perfume: The Story of a Murderer (2006) BDRip [1080p]
    Дата кодирования : UTC 2015-08-01 18:22:01
    Программа кодирования : mkvmerge v7.8.0 ('River Man') 32bit built on Mar 27 2015 16:18:02
    Библиотека кодирования : libebml v1.3.1 + libmatroska v1.4.2
    DURATION : 02:16:11.213000000
    NUMBER_OF_FRAMES : 899
    NUMBER_OF_BYTES : 29373
    _STATISTICS_WRITING_APP : mkvmerge v7.8.0 ('River Man') 32bit built on Mar 27 2015 16:18:02
    _STATISTICS_WRITING_DATE_UTC : 2015-08-01 18:22:01
    _STATISTICS_TAGS : BPS DURATION NUMBER_OF_FRAMES NUMBER_OF_BYTES

    Видео
    Идентификатор : 1
    Формат : AVC
    Формат/Информация : Advanced Video Codec
    Профиль формата : High@L4.1
    Параметр CABAC формата : Да
    Параметр ReFrames формата : 5 кадров
    Идентификатор кодека : V_MPEG4/ISO/AVC
    Продолжительность : 2 ч. 27 м.
    Битрейт : 12,9 Мбит/сек
    Ширина : 1916 пикселей
    Высота : 816 пикселей
    Соотношение сторон : 2,35:1
    Режим частоты кадров : Постоянный
    Частота кадров : 23,976 кадра/сек
    Цветовое пространство : YUV
    Субдискретизация насыщенности : 4:2:0
    Битовая глубина : 8 бит
    Тип развёртки : Прогрессивная
    Бит/(Пиксели*Кадры) : 0.343
    Размер потока : 13,3 Гбайт (74%)
    Заголовок : [2006] Парфюмер: История одного убийцы / Perfume: The Story of a Murderer [BDRip] [1080p]
    Библиотека кодирования : x264 core 146 r2538kMod 121396c
    Настройки программы : cabac=1 / ref=5 / deblock=1:-2:-2 / analyse=0x3:0x133 / me=umh / subme=11 / psy=1 / fade_compensate=0.00 / psy_rd=1.00:0.00 / mixed_ref=1 / me_range=32 / chroma_me=1 / trellis=2 / 8x8dct=1 / cqm=0 / deadzone=21,11 / fast_pskip=1 / chroma_qp_offset=-2 / threads=12 / lookahead_threads=2 / sliced_threads=0 / nr=0 / decimate=1 / interlaced=0 / bluray_compat=0 / constrained_intra=0 / fgo=0 / bframes=8 / b_pyramid=2 / b_adapt=2 / b_bias=0 / direct=1 / weightb=1 / open_gop=0 / weightp=2 / keyint=250 / keyint_min=23 / scenecut=40 / intra_refresh=0 / rc_lookahead=60 / rc=crf / mbtree=0 / crf=17.0000 / qcomp=0.70 / qpmin=0 / qpmax=69 / qpstep=4 / vbv_maxrate=62500 / vbv_bufsize=78125 / crf_max=0.0 / nal_hrd=none / filler=0 / ip_ratio=1.40 / pb_ratio=1.30 / aq=1:0.80
    Язык : English
    Default : Да
    Forced : Нет
    Цветовой диапазон : Limited
    Основные цвета : BT.709
    Характеристики трансфера : BT.709
    Коэффициенты матрицы : BT.709

    Аудио #1
    Идентификатор : 2
    Формат : DTS
    Формат/Информация : Digital Theater Systems
    Режим : 16
    Параметр Endianness формата : Big
    Идентификатор кодека : A_DTS
    Продолжительность : 2 ч. 27 м.
    Вид битрейта : Постоянный
    Битрейт : 755 Кбит/сек
    Каналы : 6 каналов
    Расположение каналов : Front: L C R, Side: L R, LFE
    Частота : 48,0 КГц
    Битовая глубина : 24 бит
    Метод сжатия : С потерями
    Размер потока : 796 Мбайт (4%)
    Заголовок : DUB - «R5»
    Язык : Russian
    Default : Да
    Forced : Нет

    Аудио #2
    Идентификатор : 3
    Формат : DTS
    Формат/Информация : Digital Theater Systems
    Режим : 16
    Параметр Endianness формата : Big
    Идентификатор кодека : A_DTS
    Продолжительность : 2 ч. 27 м.
    Вид битрейта : Постоянный
    Битрейт : 1509 Кбит/сек
    Каналы : 6 каналов
    Расположение каналов : Front: L C R, Side: L R, LFE
    Частота : 48,0 КГц
    Битовая глубина : 16 бит
    Метод сжатия : С потерями
    Размер потока : 1,55 Гбайт (9%)
    Заголовок : AVO - Ю.Немахов
    Язык : Russian
    Default : Нет
    Forced : Нет

    Аудио #3
    Идентификатор : 4
    Формат : AC-3
    Формат/Информация : Audio Coding 3
    Расширение режима : CM (complete main)
    Параметр Endianness формата : Big
    Идентификатор кодека : A_AC3
    Продолжительность : 2 ч. 27 м.
    Вид битрейта : Постоянный
    Битрейт : 384 Кбит/сек
    Каналы : 6 каналов
    Расположение каналов : Front: L C R, Side: L R, LFE
    Частота : 48,0 КГц
    Метод сжатия : С потерями
    Размер потока : 405 Мбайт (2%)
    Заголовок : DUB - «R5»
    Язык : Ukrainian
    Default : Нет
    Forced : Нет

    Аудио #4
    Идентификатор : 5
    Формат : DTS
    Формат/Информация : Digital Theater Systems
    Режим : 16
    Параметр Endianness формата : Big
    Идентификатор кодека : A_DTS
    Продолжительность : 2 ч. 27 м.
    Вид битрейта : Постоянный
    Битрейт : 1509 Кбит/сек
    Каналы : 6 каналов
    Расположение каналов : Front: L C R, Side: L R, LFE
    Частота : 48,0 КГц
    Битовая глубина : 24 бит
    Метод сжатия : С потерями
    Размер потока : 1,55 Гбайт (9%)
    Заголовок : Original
    Язык : English
    Default : Нет
    Forced : Нет

    Текст #1
    Идентификатор : 6
    Формат : UTF-8
    Идентификатор кодека : S_TEXT/UTF8
    Идентификатор кодека/Информация : UTF-8 Plain Text
    Заголовок : Russian
    Язык : Russian
    Default : Нет
    Forced : Нет

    Текст #2
    Идентификатор : 7
    Формат : UTF-8
    Идентификатор кодека : S_TEXT/UTF8
    Идентификатор кодека/Информация : UTF-8 Plain Text
    Заголовок : English
    Язык : English
    Default : Нет
    Forced : Нет

    Меню
    00:00:00.000 : en:The Realm of Scent
    00:04:08.746 : en:Madame Gaillard's Orphanage
    00:09:16.471 : en:A Utopia of Unexplored Smells
    00:12:10.186 : en:Giuseppe Baldini
    00:18:02.205 : en:Essential Oils
    00:27:41.659 : en:Teach Me Everything
    00:33:29.089 : en:Solitude
    00:43:56.842 : en:And the Gods Began to Smile
    00:49:27.422 : en:Journeyman
    00:58:21.706 : en:Hide and Seek
    01:03:28.304 : en:Until His Collection is Complete
    01:08:19.929 : en:On the Run
    01:16:09.146 : en:Laura
    01:21:56.536 : en:Remember This
    01:29:21.439 : en:The Thirteenth Essence
    01:36:42.128 : en:Drawn Back
    01:42:02.448 : en:End Credits
    01:47:58.305 : en:Drawn Back
    01:53:50.113 : en:Until His Collection Is Complete
    01:56:57.342 : en:Solitude
    02:05:07.207 : en:Madame Gaillard's Orphanage
    02:11:20.872 : en:What's the Matter
    02:17:53.263 : en:Relationships
    02:27:22.834 : en:End Credits
10.0 из 10
голосов: 1
/10
/10
Kavasar 1-08-2015, 22:05
Информация
Посетители, находящиеся в группе Гости, не могут оставлять комментарии к данной публикации.