Панель пользователя
Регистрация

Воспользуйтесь социальными сетями для входа на https://freerutor.com

vk odnoklassniki facebook mailru yandex google
Популярное
Счетчик
Голосуй за нас
VIP на сайте
Популярное
Товары интернет магазина
загрузка...

Энигма / Enigma (2001) BDRip 1080p | Лицензия

Энигма / Enigma (2001) BDRip 1080p | Лицензия
Участники торрент обмена
Сидов Пиров Скачали
0 0 26
Характеристика
Размер Файлы
10.75 GB
Релиз группа
Поделиться раздачей
Фильмы (720,1080,Blu-Ray)
Название: Энигма
Оригинальное название: Enigma
Жанр: триллер, драма, мелодрама, детектив, военный
Выпущено: Великобритания, США, Германия, Нидерланды / Manhattan Pictures International, Intermedia Films, Senator Film Produktion
Режиссер: Майкл Аптед
В ролях: Дюгрей Скотт, Кейт Уинслет, Саффрон Берроуз, Джереми Нортэм, Николай Костер-Вальдау, Том Холландер, Дональд Самптер, Мэттью Макфэдиен, Ричард Лиф, Йен Фелс
Краткое описание: По мотивам романа Роберта Харриса.
В марте 1943 года, лучшие умы Англии были собраны в Парке Блетчли, где их известили о самой ужасной новости - нацисты изменили ключ кода для машины «Энигма»! Так как они не способны контролировать связь нацистских подлодок «U» то в считанные часы союзнический корабль, пересекающий Атлантику с 10 тысячами пассажирами и продовольственными запасами может быть потоплен.
Команда принимает решение искать помощи у Тома Джеричо, блестящего молодого математика, специалиста по кодам. Джеричо пытается разгадать еще и другую загадку, но она уже личного характера; женщина, в которую он влюблен, исчезла после того, как власти начали искать шпиона в Парке. Чтобы добраться до сути обеих тайн, Джеричо обращается к Хестер, лучшей подруге Клэр, которая работает в Блетчли. Вместе они пытаются опережать расследование, которое проводит агент секретной службы Уиграм. Правда оказывается иногда очень горькой...
  • Видео: MPEG-4 AVC/H.264, 1920x816 (2,35:1), 10 600 kbps, 23.976 fps, 0.282 b/px
    Аудио # 1: АС3, 6 ch, 448 kbps, 48 000 Hz - DUB - «МОСФИЛЬМ-мастер»
    Аудио # 2: АС3, 6 ch, 384 kbps, 48 000 Hz - MVO - «Пирамида»
    Аудио # 3: DTS, 6 ch, 1509 kbps, 48 000 Hz - Original - English
    Перевод: профессиональный (полное дублирование), профессиональный (многоголосый закадровый)
    Язык субтитров: русский
    Вид субтитров: вшитые, отключаемые
    Продолжительность: 01:58:51
  • Энигма / Enigma (2001) BDRip 1080p | Лицензия Энигма / Enigma (2001) BDRip 1080p | Лицензия Энигма / Enigma (2001) BDRip 1080p | Лицензия
  • x264 [info]: frame I:2349 Avg QP:15.93 size:213359
    x264 [info]: frame P:105152 Avg QP:18.50 size: 70387
    x264 [info]: frame B:63488 Avg QP:20.13 size: 22685

    Общее
    Уникальный идентификатор : 239223874000284662688111953649391458443 (0xB3F8D79CB59FC73C9DA784C2E9C9588B)
    Полное имя : E:\[2001] Энигма [BDRip] [1080p].mkv
    Формат : Matroska
    Версия формата : Version 4 / Version 2
    Размер файла : 10,7 Гбайт
    Продолжительность : 1 ч. 58 м.
    Общий поток : 12,9 Мбит/сек
    Название фильма : Энигма / Enigma (2001) BDRip [1080p]
    Дата кодирования : UTC 2015-07-28 21:54:54
    Программа кодирования : mkvmerge v7.8.0 ('River Man') 32bit built on Mar 27 2015 16:18:02
    Библиотека кодирования : libebml v1.3.1 + libmatroska v1.4.2
    _STATISTICS_WRITING_APP : mkvmerge v7.8.0 ('River Man') 32bit built on Mar 27 2015 16:18:02
    _STATISTICS_WRITING_DATE_UTC : 2015-07-28 21:54:54
    _STATISTICS_TAGS : BPS DURATION NUMBER_OF_FRAMES NUMBER_OF_BYTES
    DURATION : 01:53:34.937000000
    NUMBER_OF_FRAMES : 1566
    NUMBER_OF_BYTES : 88665

    Видео
    Идентификатор : 1
    Формат : AVC
    Формат/Информация : Advanced Video Codec
    Профиль формата : High@L4.1
    Параметр CABAC формата : Да
    Параметр ReFrames формата : 5 кадров
    Идентификатор кодека : V_MPEG4/ISO/AVC
    Продолжительность : 1 ч. 58 м.
    Битрейт : 10,6 Мбит/сек
    Ширина : 1920 пикселей
    Высота : 816 пикселей
    Соотношение сторон : 2,35:1
    Режим частоты кадров : Постоянный
    Частота кадров : 23,976 кадра/сек
    Цветовое пространство : YUV
    Субдискретизация насыщенности : 4:2:0
    Битовая глубина : 8 бит
    Тип развёртки : Прогрессивная
    Бит/(Пиксели*Кадры) : 0.282
    Размер потока : 8,59 Гбайт (80%)
    Заголовок : [2001] Энигма / Enigma [BDRip] [1080p]
    Библиотека кодирования : x264 core 146 r2538 121396c
    Настройки программы : cabac=1 / ref=5 / deblock=1:-3:-2 / analyse=0x3:0x113 / me=umh / subme=11 / psy=1 / psy_rd=1.00:0.00 / mixed_ref=1 / me_range=32 / chroma_me=1 / trellis=2 / 8x8dct=1 / cqm=0 / deadzone=21,11 / fast_pskip=1 / chroma_qp_offset=-2 / threads=12 / lookahead_threads=1 / sliced_threads=0 / nr=0 / decimate=1 / interlaced=0 / bluray_compat=0 / constrained_intra=0 / bframes=11 / b_pyramid=2 / b_adapt=1 / b_bias=0 / direct=2 / weightb=1 / open_gop=0 / weightp=2 / keyint=240 / keyint_min=23 / scenecut=40 / intra_refresh=0 / rc_lookahead=40 / rc=2pass / mbtree=1 / bitrate=10600 / ratetol=1.0 / qcomp=0.60 / qpmin=0 / qpmax=69 / qpstep=4 / cplxblur=20.0 / qblur=0.5 / vbv_maxrate=62500 / vbv_bufsize=78125 / nal_hrd=none / filler=0 / ip_ratio=1.40 / aq=1:1.00
    Язык : English
    Default : Да
    Forced : Нет
    _STATISTICS_WRITING_APP : mkvmerge v7.8.0 ('River Man') 32bit built on Mar 27 2015 16:18:02
    _STATISTICS_WRITING_DATE_UTC : 2015-07-28 21:54:54
    _STATISTICS_TAGS : BPS DURATION NUMBER_OF_FRAMES NUMBER_OF_BYTES
    DURATION : 01:58:51.667000000
    NUMBER_OF_FRAMES : 170989
    NUMBER_OF_BYTES : 9447585533

    Аудио #1
    Идентификатор : 2
    Формат : AC-3
    Формат/Информация : Audio Coding 3
    Расширение режима : CM (complete main)
    Параметр Endianness формата : Big
    Идентификатор кодека : A_AC3
    Продолжительность : 1 ч. 58 м.
    Вид битрейта : Постоянный
    Битрейт : 448 Кбит/сек
    Каналы : 6 каналов
    Расположение каналов : Front: L C R, Side: L R, LFE
    Частота : 48,0 КГц
    Метод сжатия : С потерями
    Размер потока : 381 Мбайт (3%)
    Заголовок : DUB - «МОСФИЛЬМ-мастер»
    Язык : Russian
    Default : Да
    Forced : Нет

    Аудио #2
    Идентификатор : 3
    Формат : AC-3
    Формат/Информация : Audio Coding 3
    Расширение режима : CM (complete main)
    Параметр Endianness формата : Big
    Идентификатор кодека : A_AC3
    Продолжительность : 1 ч. 58 м.
    Вид битрейта : Постоянный
    Битрейт : 384 Кбит/сек
    Каналы : 6 каналов
    Расположение каналов : Front: L C R, Side: L R, LFE
    Частота : 48,0 КГц
    Метод сжатия : С потерями
    Размер потока : 326 Мбайт (3%)
    Заголовок : MVO - «Пирамида»
    Язык : Russian
    Default : Нет
    Forced : Нет

    Аудио #3
    Идентификатор : 4
    Формат : DTS
    Формат/Информация : Digital Theater Systems
    Режим : 16
    Параметр Endianness формата : Big
    Идентификатор кодека : A_DTS
    Продолжительность : 1 ч. 58 м.
    Вид битрейта : Постоянный
    Битрейт : 1509 Кбит/сек
    Каналы : 6 каналов
    Расположение каналов : Front: L C R, Side: L R, LFE
    Частота : 48,0 КГц
    Битовая глубина : 24 бит
    Метод сжатия : С потерями
    Размер потока : 1,25 Гбайт (12%)
    Заголовок : Original
    Язык : English
    Default : Нет
    Forced : Нет

    Текст
    Идентификатор : 5
    Формат : UTF-8
    Идентификатор кодека : S_TEXT/UTF8
    Идентификатор кодека/Информация : UTF-8 Plain Text
    Заголовок : Russian
    Язык : Russian
    Default : Нет
    Forced : Нет

    Меню
    00:00:00.000 : en:00:00:00.000
    00:09:53.843 : en:00:09:53.843
    00:19:23.788 : en:00:19:23.788
    00:30:05.429 : en:00:30:05.429
    00:42:40.683 : en:00:42:40.683
    00:52:27.770 : en:00:52:27.770
    01:04:26.571 : en:01:04:26.571
    01:14:36.681 : en:01:14:36.681
    01:24:26.353 : en:01:24:26.353
    01:33:42.867 : en:01:33:42.867
    01:42:53.292 : en:01:42:53.292
    01:50:50.727 : en:01:50:50.727
10.0 из 10
голосов: 1
/10
/10
Kavasar 29-07-2015, 13:10
Информация
Посетители, находящиеся в группе Гости, не могут оставлять комментарии к данной публикации.