Панель пользователя
Регистрация

Воспользуйтесь социальными сетями для входа на https://freerutor.com

vk odnoklassniki facebook mailru yandex google
Популярное
Счетчик
Голосуй за нас
VIP на сайте
Популярное
Товары интернет магазина
загрузка...

Любовь и голуби (1984) BDRip-AVC

Любовь и голуби (1984) BDRip-AVC
Участники торрент обмена
Сидов Пиров Скачали
0 0 162
Характеристика
Размер Файлы
2.19 GB
Релиз группа
Поделиться раздачей
Фильмы (AVC)
Оригинальное название: Любовь и голуби
Жанр: Мелодрама, комедия
Выпущено: СССР / Мосфильм
Режиссер: Владимир Меньшов
В ролях: Нина Дорошина, Александр Михайлов, Людмила Гурченко, Янина Лисовская, Игорь Лях, Лада Сизоненко, Наталья Тенякова, Сергей Юрский, Владимир Меньшов, Константин Михайлов, Андрей Рабинович
Краткое описание: Ликвидируя неисправность лебедки, Василий Кузякин получил травму и путевку на юг. Встретил роковую женщину Раису Захаровну и… вернулся Вася с курорта не к себе в деревню, а в дом Раисы Захаровны. Началась для него новая жизнь, в которой было много непонятного и интересного, но не было дома, где остались Надя, дети и голуби…
  • Видео: MPEG-4 AVC, 2538 Кбит/с, 1024x576
    Аудио: AC3, 6 ch, 448 Кбит/с
    Перевод: Не требуется
    Продолжительность: 01:44:44
  • Любовь и голуби (1984) BDRip-AVC Любовь и голуби (1984) BDRip-AVC Любовь и голуби (1984) BDRip-AVC
  • Общее
    Полное имя : Lubov.i.golubi.1984.BDRip-AVC_[Youtracker]_by_avproh.mkv
    Формат : Matroska
    Версия формата : Version 4 / Version 2
    Размер файла : 2,19 Гбайт
    Продолжительность : 1 ч. 44 м.
    Общий поток : 2988 Кбит/сек
    Дата кодирования : UTC 2013-07-06 20:06:48
    Программа кодирования : mkvmerge v6.1.0 ('Old Devil') built on Mar 2 2013 14:32:37
    Библиотека кодирования : libebml v1.3.0 + libmatroska v1.4.0

    Видео
    Идентификатор : 1
    Формат : AVC
    Формат/Информация : Advanced Video Codec
    Профиль формата : High@L4.1
    Параметр CABAC формата : Да
    Параметр ReFrames формата : 11 кадров
    Идентификатор кодека : V_MPEG4/ISO/AVC
    Продолжительность : 1 ч. 44 м.
    Битрейт : 2538 Кбит/сек
    Ширина : 1024 пикселя
    Высота : 576 пикселей
    Соотношение сторон : 16:9
    Режим частоты кадров : Постоянный
    Частота кадров : 23,976 кадра/сек
    Цветовое пространство : YUV
    Субдискретизация насыщенности : 4:2:0
    Битовая глубина : 8 бит
    Тип развёртки : Прогрессивная
    Бит/(Пиксели*Кадры) : 0.179
    Размер потока : 1,81 Гбайт (83%)
    Библиотека кодирования : x264 core 130 r2273 b3065e6
    Настройки программы : cabac=1 / ref=11 / deblock=1:-2:-1 / analyse=0x3:0x113 / me=umh / subme=9 / psy=1 / psy_rd=1.00:0.10 / mixed_ref=1 / me_range=32 / chroma_me=1 / trellis=2 / 8x8dct=1 / cqm=0 / deadzone=21,11 / fast_pskip=1 / chroma_qp_offset=-3 / threads=9 / lookahead_threads=2 / sliced_threads=0 / nr=0 / decimate=1 / interlaced=0 / bluray_compat=0 / constrained_intra=0 / bframes=10 / b_pyramid=2 / b_adapt=2 / b_bias=0 / direct=3 / weightb=1 / open_gop=0 / weightp=2 / keyint=240 / keyint_min=23 / scenecut=40 / intra_refresh=0 / rc_lookahead=80 / rc=2pass / mbtree=1 / bitrate=2538 / ratetol=1.0 / qcomp=0.60 / qpmin=0 / qpmax=69 / qpstep=4 / cplxblur=20.0 / qblur=0.5 / ip_ratio=1.40 / aq=2:0.90
    Язык : Russian
    Default : Да
    Forced : Нет

    Аудио
    Идентификатор : 2
    Формат : AC-3
    Формат/Информация : Audio Coding 3
    Расширение режима : CM (complete main)
    Параметр Endianness формата : Big
    Идентификатор кодека : A_AC3
    Продолжительность : 1 ч. 44 м.
    Вид битрейта : Постоянный
    Битрейт : 448 Кбит/сек
    Каналы : 6 каналов
    Расположение каналов : Front: L C R, Side: L R, LFE
    Частота : 48,0 КГц
    Битовая глубина : 16 бит
    Метод сжатия : С потерями
    Размер потока : 336 Мбайт (15%)
    Язык : Russian
    Default : Да
    Forced : Нет

    Меню
    00:00:00.000 : en:00:00:00.000
    00:07:08.678 : en:00:07:08.678
    00:13:18.840 : en:00:13:18.840
    00:17:04.982 : en:00:17:04.982
    00:24:56.036 : en:00:24:56.036
    00:33:11.031 : en:00:33:11.031
    00:40:17.790 : en:00:40:17.790
    00:47:41.317 : en:00:47:41.317
    00:52:54.505 : en:00:52:54.505
    00:59:58.094 : en:00:59:58.094
    01:07:48.398 : en:01:07:48.398
    01:17:34.483 : en:01:17:34.483
    01:24:02.246 : en:01:24:02.246
    01:29:57.601 : en:01:29:57.601
    01:34:37.255 : en:01:34:37.255
    01:40:07.210 : en:01:40:07.210
10.0 из 10
голосов: 3
/10
/10
grab777 20-07-2015, 21:33
Информация
Посетители, находящиеся в группе Гости, не могут оставлять комментарии к данной публикации.