Панель пользователя
Регистрация

Воспользуйтесь социальными сетями для входа на https://freerutor.com

vk odnoklassniki facebook mailru yandex google
Популярное
Счетчик
Голосуй за нас
VIP на сайте
Популярное
Товары интернет магазина
загрузка...

Дикие лошади / Wild Horses (2015) BDRip 1080p | Чистый звук

Дикие лошади / Wild Horses (2015) BDRip 1080p | Чистый звук
Участники торрент обмена
Сидов Пиров Скачали
0 0 141
Характеристика
Размер Файлы
6.80 GB
Поделиться раздачей
Фильмы (720,1080,Blu-Ray)
Наименование: Дикие лошади
Оригинальное наименование: Wild Horses
Категория: Драма, криминал
Произведено: США / Patriot Pictures LLC
Режиссер постановщик: Роберт Дювалл
В главных ролях: Роберт Дювалл, Джеймс Франко, Джош Хартнетт, Лусиана Педраса, Энджи Сепеда, Джим Пэррак, Адриана Барраса, Хоакин Джексон, Кристиан Дженсен
Краткое описание: Техасские рейнджеры расследуют исчезновение мальчика, произошедшее пятнадцать лет назад. Улики приводят их на ферму, однако нынешний ее владелец отказывается от какого-либо сотрудничества.
  • Видео: MPEG-4 AVC, 7500 kb/s, 1920х800
    Аудио: Russian: AC3, 384 kb/s (2 ch) / English: DTS, 1510 kb/s (6 ch)
    Перевод: Дублированный [Чистый звук]
    Субтитры: Russian (Full- от lext_2009), English
    Продолжительность: 01:43:37
  • Дикие лошади / Wild Horses (2015) BDRip 1080p | Чистый звук Дикие лошади / Wild Horses (2015) BDRip 1080p | Чистый звук Дикие лошади / Wild Horses (2015) BDRip 1080p | Чистый звук
  • x264 [info]: frame I:1238 Avg QP:12.98 size:161907
    x264 [info]: frame P:32428 Avg QP:15.61 size: 74153
    x264 [info]: frame B:115413 Avg QP:17.49 size: 27958
    x264 [info]: consecutive B-frames: 2.2% 2.7% 6.3% 22.2% 17.1% 38.6% 10.9%

    Общее
    Уникальный идентификатор : 171207434435210032783129712947686230383 (0x80CD5A3B58955BD0A65693C8B277496F)
    Полное имя : D:\загрузки\Wild.Horses.2015.D.BluRay.1080p.mkv
    Формат : Matroska
    Версия формата : Version 4 / Version 2
    Размер файла : 6,80 Гбайт
    Продолжительность : 1 ч. 43 м.
    Общий поток : 9399 Кбит/сек
    Дата кодирования : UTC 2016-05-25 22:08:42
    Программа кодирования : mkvmerge v8.3.0 ('Over the Horizon') 64bit
    Библиотека кодирования : libebml v1.3.1 + libmatroska v1.4.2

    Видео
    Идентификатор : 1
    Формат : AVC
    Формат/Информация : Advanced Video Codec
    Профиль формата : High@L4.1
    Параметр CABAC формата : Да
    Параметр ReFrames формата : 4 кадра
    Идентификатор кодека : V_MPEG4/ISO/AVC
    Продолжительность : 1 ч. 43 м.
    Битрейт : 7500 Кбит/сек
    Ширина : 1920 пикселей
    Высота : 800 пикселей
    Соотношение сторон : 2,40:1
    Режим частоты кадров : Постоянный
    Частота кадров : 23,976 кадра/сек
    Цветовое пространство : YUV
    Субдискретизация насыщенности : 4:2:0
    Битовая глубина : 8 бит
    Тип развёртки : Прогрессивная
    Бит/(Пиксели*Кадры) : 0.204
    Размер потока : 5,30 Гбайт (78%)
    Заголовок : GM@MTeam
    Библиотека кодирования : x264 core 142 r2431+42 c69a006 tMod [8-bit@4:2:0 X86_64]
    Настройки программы : cabac=1 / ref=4 / deblock=1:-3:-3 / analyse=0x3:0x113 / me=umh / subme=11 / psy=1 / fade_compensate=0.00 / psy_rd=1.05:0.10 / mixed_ref=1 / me_range=48 / chroma_me=1 / trellis=2 / 8x8dct=1 / cqm=0 / deadzone=21,11 / fast_pskip=0 / chroma_qp_offset=-2 / threads=12 / lookahead_threads=1 / sliced_threads=0 / nr=0 / decimate=1 / interlaced=0 / bluray_compat=0 / constrained_intra=0 / fgo=0 / bframes=6 / b_pyramid=2 / b_adapt=2 / b_bias=0 / direct=3 / weightb=1 / open_gop=0 / weightp=2 / keyint=250 / keyint_min=23 / scenecut=40 / intra_refresh=0 / rc_lookahead=40 / rc=2pass / mbtree=0 / bitrate=7500 / ratetol=2.0 / qcomp=0.60 / qpmin=0:0:0 / qpmax=69:69:69 / qpstep=4 / cplxblur=20.0 / qblur=0.5 / vbv_maxrate=50000 / vbv_bufsize=45000 / nal_hrd=none / filler=0 / ip_ratio=1.40 / pb_ratio=1.30 / aq=4:1.00 / aq-sensitivity=10.00 / aq-factor=1.00:1.00:1.00 / aq2=0 / aq3=0
    Default : Да
    Forced : Нет

    Аудио #1
    Идентификатор : 2
    Формат : AC-3
    Формат/Информация : Audio Coding 3
    Расширение режима : CM (complete main)
    Параметр Endianness формата : Big
    Идентификатор кодека : A_AC3
    Продолжительность : 1 ч. 43 м.
    Вид битрейта : Постоянный
    Битрейт : 384 Кбит/сек
    Каналы : 2 канала
    Расположение каналов : Front: L R
    Частота : 48,0 КГц
    Битовая глубина : 16 бит
    Метод сжатия : С потерями
    Размер потока : 285 Мбайт (4%)
    Язык : Russian
    Default : Да
    Forced : Нет

    Аудио #2
    Идентификатор : 3
    Формат : DTS
    Формат/Информация : Digital Theater Systems
    Режим : 16
    Параметр Endianness формата : Big
    Идентификатор кодека : A_DTS
    Продолжительность : 1 ч. 43 м.
    Вид битрейта : Постоянный
    Битрейт : 1509 Кбит/сек
    Каналы : 6 каналов
    Расположение каналов : Front: L C R, Side: L R, LFE
    Частота : 48,0 КГц
    Битовая глубина : 24 бит
    Метод сжатия : С потерями
    Размер потока : 1,09 Гбайт (16%)
    Язык : English
    Default : Нет
    Forced : Нет

    Текст #1
    Идентификатор : 4
    Формат : UTF-8
    Идентификатор кодека : S_TEXT/UTF8
    Идентификатор кодека/Информация : UTF-8 Plain Text
    Язык : Russian
    Default : Нет
    Forced : Нет

    Текст #2
    Идентификатор : 5
    Формат : UTF-8
    Идентификатор кодека : S_TEXT/UTF8
    Идентификатор кодека/Информация : UTF-8 Plain Text
    Язык : English
    Default : Нет
    Forced : Нет

    Меню
    00:00:00.000 : en:00:00:00.000
    00:07:01.838 : en:00:07:01.838
    00:14:20.026 : en:00:14:20.026
    00:24:46.694 : en:00:24:46.694
    00:37:03.138 : en:00:37:03.138
    00:45:39.904 : en:00:45:39.904
    00:53:37.506 : en:00:53:37.506
    01:03:33.518 : en:01:03:33.518
    01:12:20.253 : en:01:12:20.253
    01:21:03.400 : en:01:21:03.400
    01:29:14.933 : en:01:29:14.933
    01:37:19.584 : en:01:37:19.584
7.7 из 10
голосов: 6
/10
/10
karta 26-05-2016, 02:14
Информация
Посетители, находящиеся в группе Гости, не могут оставлять комментарии к данной публикации.