Панель пользователя
Регистрация

Воспользуйтесь социальными сетями для входа на https://freerutor.com

vk odnoklassniki facebook mailru yandex google
Популярное
Счетчик
Голосуй за нас
VIP на сайте
Популярное
Товары интернет магазина
загрузка...

Третий лишний 2 / Ted 2 (2015) BDRip-AVC | Лицензия

Третий лишний 2 / Ted 2 (2015) BDRip-AVC | Лицензия
Участники торрент обмена
Сидов Пиров Скачали
2 0 1066
Характеристика
Размер Файлы
1.95 GB
Поделиться раздачей
Фильмы (AVC)
Наименование: Третий лишний 2
Оригинальное наименование: Ted 2
Категория: Комедия
Произведено: США / Universal Pictures
Режиссер постановщик: Сет МакФарлейн
В главных ролях: Марк Уолберг, Сет МакФарлейн, Аманда Сайфред, Джованни Рибизи, Джон Слэттери, Морган Фримен, Джессика Барт, Сэм Дж. Джонс, Патрик Варбертон, Майкл Дорн, Билл
Краткое описание: Плюшевый беспредельщик продолжает сводить с ума чопорную интеллигенцию. На этот раз говорящий медвежонок с большим эго и его длинноногая блондинка решили завести ребёнка. Там, где не постаралась природа, на помощь приходят звёздные доноры, городские сумасшедшие и верный друг Джонни. Он только что расстался с Лори и готов к новым авантюрам. Третий здесь совсем не лишний.
  • Видео данные: MPEG-4 AVC, 1650 Кбит/с, 1024x424
    Аудио данные: Русский, английский (AC3, 6 ch, 384 Кбит/с)
    Перевод: Дублированный [iTunes]
    Субтитры: Английские
    Продолжительность: 01:55:32
  • Третий лишний 2 / Ted 2 (2015) BDRip-AVC | Лицензия Третий лишний 2 / Ted 2 (2015) BDRip-AVC | Лицензия Третий лишний 2 / Ted 2 (2015) BDRip-AVC | Лицензия
  • Формат : Matroska
    Версия формата : Version 4 / Version 2
    Размер файла : 1,95 Гбайт
    Продолжительность : 1 ч. 55 м.
    Общий поток : 2420 Кбит/сек
    Название фильма : Ted.2.2015.x264.BDRip.AVC.Rus.Eng
    Дата кодирования : UTC 2015-11-19 18:43:27
    Программа кодирования : mkvmerge v7.9.0 ('Birds') 64bit
    Библиотека кодирования : libebml v1.3.1 + libmatroska v1.4.2
    DURATION : 01:47:54.134000000
    NUMBER_OF_FRAMES : 2161
    NUMBER_OF_BYTES : 74879
    _STATISTICS_WRITING_APP : mkvmerge v7.9.0 ('Birds') 64bit
    _STATISTICS_WRITING_DATE_UTC : 2015-11-19 18:43:27
    _STATISTICS_TAGS : BPS DURATION NUMBER_OF_FRAMES NUMBER_OF_BYTES

    Видео
    Идентификатор : 1
    Формат : AVC
    Формат/Информация : Advanced Video Codec
    Профиль формата : High@L4.1
    Параметр CABAC формата : Да
    Параметр ReFrames формата : 11 кадров
    Идентификатор кодека : V_MPEG4/ISO/AVC
    Продолжительность : 1 ч. 55 м.
    Битрейт : 1650 Кбит/сек
    Ширина : 1024 пикселя
    Высота : 424 пикселя
    Соотношение сторон : 2,40:1
    Режим частоты кадров : Постоянный
    Частота кадров : 23,976 кадра/сек
    Цветовое пространство : YUV
    Субдискретизация насыщенности : 4:2:0
    Битовая глубина : 8 бит
    Тип развёртки : Прогрессивная
    Бит/(Пиксели*Кадры) : 0.159
    Размер потока : 1,29 Гбайт (66%)
    Заголовок : Ted.2.2015.x264.BDRip.AVC.Rus.Eng.by.StarbirS
    Библиотека кодирования : x264 core 148 r2597 e86f3a1
    Настройки программы : cabac=1 / ref=11 / deblock=1:-3:-3 / analyse=0x3:0x113 / me=umh / subme=11 / psy=1 / psy_rd=1.00:0.15 / mixed_ref=1 / me_range=32 / chroma_me=1 / trellis=2 / 8x8dct=1 / cqm=0 / deadzone=21,11 / fast_pskip=0 / chroma_qp_offset=-3 / threads=12 / lookahead_threads=2 / sliced_threads=0 / nr=0 / decimate=0 / interlaced=0 / bluray_compat=0 / constrained_intra=0 / bframes=7 / b_pyramid=2 / b_adapt=2 / b_bias=0 / direct=3 / weightb=1 / open_gop=1 / weightp=2 / keyint=240 / keyint_min=23 / scenecut=40 / intra_refresh=0 / rc_lookahead=40 / rc=2pass / mbtree=0 / bitrate=1650 / ratetol=1.0 / qcomp=0.60 / qpmin=0 / qpmax=69 / qpstep=4 / cplxblur=20.0 / qblur=0.5 / vbv_maxrate=62500 / vbv_bufsize=78125 / nal_hrd=none / filler=0 / ip_ratio=1.40 / pb_ratio=1.30 / aq=1:0.80
    Язык : English
    Default : Да
    Forced : Нет
    DURATION : 01:55:32.259000000
    NUMBER_OF_FRAMES : 166208
    NUMBER_OF_BYTES : 1429406958
    _STATISTICS_WRITING_APP : mkvmerge v7.9.0 ('Birds') 64bit
    _STATISTICS_WRITING_DATE_UTC : 2015-11-19 18:43:27
    _STATISTICS_TAGS : BPS DURATION NUMBER_OF_FRAMES NUMBER_OF_BYTES

    Аудио #1
    Идентификатор : 2
    Формат : AC-3
    Формат/Информация : Audio Coding 3
    Расширение режима : CM (complete main)
    Параметр Endianness формата : Big
    Идентификатор кодека : A_AC3
    Продолжительность : 1 ч. 55 м.
    Вид битрейта : Постоянный
    Битрейт : 384 Кбит/сек
    Каналы : 6 каналов
    Расположение каналов : Front: L C R, Side: L R, LFE
    Частота : 48,0 КГц
    Метод сжатия : С потерями
    Размер потока : 317 Мбайт (16%)
    Заголовок : Дублированный (iTunes)
    Язык : Russian
    Default : Да
    Forced : Нет

    Аудио #2
    Идентификатор : 3
    Формат : AC-3
    Формат/Информация : Audio Coding 3
    Расширение режима : CM (complete main)
    Параметр Endianness формата : Big
    Идентификатор кодека : A_AC3
    Продолжительность : 1 ч. 55 м.
    Вид битрейта : Постоянный
    Битрейт : 384 Кбит/сек
    Каналы : 6 каналов
    Расположение каналов : Front: L C R, Side: L R, LFE
    Частота : 48,0 КГц
    Метод сжатия : С потерями
    Размер потока : 317 Мбайт (16%)
    Язык : English
    Default : Нет
    Forced : Нет

    Текст
    Идентификатор : 4
    Формат : UTF-8
    Идентификатор кодека : S_TEXT/UTF8
    Идентификатор кодека/Информация : UTF-8 Plain Text
    Язык : English
    Default : Нет
    Forced : Нет

    Меню
    00:00:00.000 : en:00:00:00.000
    00:07:14.559 : en:00:07:14.559
    00:14:47.510 : en:00:14:47.510
    00:19:13.861 : en:00:19:13.861
    00:27:33.442 : en:00:27:33.442
    00:34:18.097 : en:00:34:18.097
    00:42:45.144 : en:00:42:45.144
    00:47:57.875 : en:00:47:57.875
    00:54:27.681 : en:00:54:27.681
    00:58:45.563 : en:00:58:45.563
    01:04:06.550 : en:01:04:06.550
    01:09:49.393 : en:01:09:49.393
    01:13:59.935 : en:01:13:59.935
    01:18:03.220 : en:01:18:03.220
    01:24:24.768 : en:01:24:24.768
    01:29:22.731 : en:01:29:22.731
    01:34:57.483 : en:01:34:57.483
    01:39:42.434 : en:01:39:42.434
    01:44:33.475 : en:01:44:33.475
7.0 из 10
голосов: 9
/10
/10
Раздачу отредактировал: karta - 25-11-2015, 21:13
По причине: (Замена WEB-DLRip-AVC на BDRip-AVC)
grab777 19-11-2015, 22:46

msobotka | 18-07-2015, 14:50 | Статус: Оффлайн

Сет МакФарлейн - хреновый актер, хреновый режиссер - пошлость и снова пошлость, Харламов, бахрутдинов, галустян и прочая наша новая российская элита в одном флаконе. Зачем это надо Уолбергу и Фриману? Гуано, старательно делающее вид, что комедия...в реальности, если взвесить всю пошлость на одной стороне весов и некую идейку, которая якобы есть в этом гуане...впрочем не надо, это все аморально и паскудно...
Информация
Посетители, находящиеся в группе Гости, не могут оставлять комментарии к данной публикации.