Панель пользователя
Регистрация

Воспользуйтесь социальными сетями для входа на https://freerutor.com

vk odnoklassniki facebook mailru yandex google
Популярное
Счетчик
Голосуй за нас
VIP на сайте
Популярное
Товары интернет магазина
загрузка...

Шпион / Spy (2015) BDRip 1080p | Лицензия

Шпион / Spy (2015)   BDRip 1080p | Лицензия
Участники торрент обмена
Сидов Пиров Скачали
0 0 227
Характеристика
Размер Файлы
11.25 GB
Поделиться раздачей
Фильмы (720,1080,Blu-Ray)
Название: Шпион
Оригинальное название: Spy
Жанр: Комедия
Выпущено: США / Feigco Entertainment, Twentieth Century Fox
Режиссер: Пол Фиг
В ролях: Морена Баккарин , Роуз Бирн , Джейсон Стэйтем , Мелисса МакКарти , Джуд Лоу , Эллисон Дженни
Краткое описание: Сьюзан Купер всю свою жизнь мечтала стать секретным агентом и даже устроилась работать в ЦРУ. Однако, дальше сотрудника самой низкой ступени ей так и не удалось продвинуться. Понимая, что осуществить свою мечту практически невозможно, она все-таки продолжает надеяться на лучшее и с нетерпением ожидает своего шанса. И вскоре судьба дарит ей такую возможность. Лучший агент проваливает секретное задание, в ходе которого он должен был выяснить местонахождение ядерной бомбы, но, совершенно случайно, застрелил единственного человека, владеющего этой информацией. Через некоторое время службе разведки становится известно, что Рейна Боянова знает, где находится бомба, но она также знает в лицо всех секретных агентов ЦРУ. Теперь у руководства не остается другого выбора, как воспользоваться услугами Сьюзан Купер, но сможет ли она справиться со столь сложной миссией?..
  • Видео: MPEG-4 AVC, 11000 Кбит/с, 1920x804
    Аудио: Русский, украинский (AC3, 6 ch, 448 Кбит/с), английский (DTS, 6 ch, 1509 Кбит/с)
    Перевод: Дублированный [Лицензия]
    Субтитры: Русские, английские, украинские
    Продолжительность: 02:00:07
  • Шпион / Spy (2015)   BDRip 1080p | Лицензия Шпион / Spy (2015)   BDRip 1080p | Лицензия Шпион / Spy (2015)   BDRip 1080p | Лицензия
  • бщее
    Уникальный идентификатор : 192073540308788634117680646748434123616 (0x908004AE082C6F4BBC87317516E4CB60)
    Полное имя : G:Spy.2015.BDRip.1080p.mkv
    Формат : Matroska
    Версия формата : Version 2
    Размер файла : 11,3 Гбайт
    Продолжительность : 2 ч. 0 м.
    Общий поток : 13,4 Мбит/сек
    Дата кодирования : UTC 2015-09-29 19:19:43
    Программа кодирования : mkvmerge v7.9.0 ('Birds') 64bit
    Библиотека кодирования : libebml v1.3.1 + libmatroska v1.4.2

    Видео
    Идентификатор : 1
    Формат : AVC
    Формат/Информация : Advanced Video Codec
    Профиль формата : High@L4.1
    Параметр CABAC формата : Да
    Параметр ReFrames формата : 5 кадров
    Идентификатор кодека : V_MPEG4/ISO/AVC
    Продолжительность : 2 ч. 0 м.
    Битрейт : 11,0 Мбит/сек
    Ширина : 1920 пикселей
    Высота : 804 пикселя
    Соотношение сторон : 2,40:1
    Режим частоты кадров : Постоянный
    Частота кадров : 23,976 кадра/сек
    Цветовое пространство : YUV
    Субдискретизация насыщенности : 4:2:0
    Битовая глубина : 8 бит
    Тип развёртки : Прогрессивная
    Бит/(Пиксели*Кадры) : 0.297
    Размер потока : 9,01 Гбайт (80%)
    Библиотека кодирования : x264 core 148 r2597 e86f3a1
    Настройки программы : cabac=1 / ref=5 / deblock=1:-3:-3 / analyse=0x3:0x113 / me=umh / subme=10 / psy=1 / psy_rd=1.00:0.00 / mixed_ref=1 / me_range=32 / chroma_me=1 / trellis=2 / 8x8dct=1 / cqm=0 / deadzone=21,11 / fast_pskip=0 / chroma_qp_offset=-2 / threads=12 / lookahead_threads=1 / sliced_threads=0 / nr=0 / decimate=0 / interlaced=0 / bluray_compat=0 / constrained_intra=0 / bframes=9 / b_pyramid=2 / b_adapt=1 / b_bias=0 / direct=3 / weightb=1 / open_gop=1 / weightp=2 / keyint=240 / keyint_min=23 / scenecut=40 / intra_refresh=0 / rc=2pass / mbtree=0 / bitrate=11000 / ratetol=1.0 / qcomp=0.60 / qpmin=0 / qpmax=69 / qpstep=4 / cplxblur=20.0 / qblur=0.5 / ip_ratio=1.40 / pb_ratio=1.30 / aq=3:0.90
    Язык : English
    Default : Да
    Forced : Нет

    Аудио #1
    Идентификатор : 2
    Формат : AC-3
    Формат/Информация : Audio Coding 3
    Расширение режима : CM (complete main)
    Параметр Endianness формата : Big
    Идентификатор кодека : A_AC3
    Продолжительность : 2 ч. 0 м.
    Вид битрейта : Постоянный
    Битрейт : 448 Кбит/сек
    Каналы : 6 каналов
    Расположение каналов : Front: L C R, Side: L R, LFE
    Частота : 48,0 КГц
    Метод сжатия : С потерями
    Размер потока : 385 Мбайт (3%)
    Язык : Russian
    Default : Да
    Forced : Нет

    Аудио #2
    Идентификатор : 3
    Формат : AC-3
    Формат/Информация : Audio Coding 3
    Расширение режима : CM (complete main)
    Параметр Endianness формата : Big
    Идентификатор кодека : A_AC3
    Продолжительность : 2 ч. 0 м.
    Вид битрейта : Постоянный
    Битрейт : 448 Кбит/сек
    Каналы : 6 каналов
    Расположение каналов : Front: L C R, Side: L R, LFE
    Частота : 48,0 КГц
    Метод сжатия : С потерями
    Размер потока : 385 Мбайт (3%)
    Язык : Ukrainian
    Default : Нет
    Forced : Нет

    Аудио #3
    Идентификатор : 4
    Формат : DTS
    Формат/Информация : Digital Theater Systems
    Профиль формата : ES
    Режим : 16
    Параметр Endianness формата : Big
    Идентификатор кодека : A_DTS
    Продолжительность : 2 ч. 0 м.
    Вид битрейта : Постоянный
    Битрейт : 1509 Кбит/сек
    Каналы : 6 каналов
    Расположение каналов : Front: L C R, Side: L R, LFE
    Частота : 48,0 КГц
    Битовая глубина : 24 бит
    Метод сжатия : С потерями
    Размер потока : 1,27 Гбайт (11%)
    Язык : English
    Default : Нет
    Forced : Нет

    Текст #1
    Идентификатор : 5
    Формат : UTF-8
    Идентификатор кодека : S_TEXT/UTF8
    Идентификатор кодека/Информация : UTF-8 Plain Text
    Язык : Russian
    Default : Да
    Forced : Нет

    Текст #2
    Идентификатор : 6
    Формат : UTF-8
    Идентификатор кодека : S_TEXT/UTF8
    Идентификатор кодека/Информация : UTF-8 Plain Text
    Язык : Russian
    Default : Нет
    Forced : Нет

    Текст #3
    Идентификатор : 7
    Формат : UTF-8
    Идентификатор кодека : S_TEXT/UTF8
    Идентификатор кодека/Информация : UTF-8 Plain Text
    Язык : Ukrainian
    Default : Нет
    Forced : Нет

    Текст #4
    Идентификатор : 8
    Формат : UTF-8
    Идентификатор кодека : S_TEXT/UTF8
    Идентификатор кодека/Информация : UTF-8 Plain Text
    Язык : English
    Default : Нет
    Forced : Нет

    Текст #5
    Идентификатор : 9
    Формат : UTF-8
    Идентификатор кодека : S_TEXT/UTF8
    Идентификатор кодека/Информация : UTF-8 Plain Text
    Язык : English
    Default : Нет
    Forced : Нет

    Меню
    00:00:00.000 : en:1
    00:03:36.000 : en:2
    00:07:43.000 : en:3
    00:10:06.000 : en:4
    00:13:13.000 : en:5
    00:14:45.000 : en:6
    00:17:54.000 : en:7
    00:20:25.000 : en:8
    00:24:31.000 : en:9
    00:27:42.000 : en:10
    00:30:46.000 : en:11
    00:35:43.000 : en:12
    00:41:37.000 : en:13
    00:43:52.000 : en:14
    00:46:35.000 : en:15
    00:51:06.000 : en:16
    00:54:08.000 : en:17
    00:59:14.000 : en:18
    01:03:14.000 : en:19
    01:05:15.000 : en:20
    01:10:41.000 : en:21
    01:16:12.000 : en:22
    01:20:14.000 : en:23
    01:24:41.000 : en:24
    01:28:03.000 : en:25
    01:31:18.000 : en:26
    01:35:48.000 : en:27
    01:40:38.000 : en:28
    01:45:24.000 : en:29
    01:49:19.000 : en:30
    01:52:07.000 : en:31
    01:54:37.000 : en:32
7.5 из 10
голосов: 11
/10
/10
grab777 2-10-2015, 12:01

Sanvik | 13-07-2015, 23:03 | Статус: Оффлайн

Верка Сердючка засветилась!!!

Vecher | 13-07-2015, 20:59 | Статус: Оффлайн

Супер! очень ждал!!! Спасибо!!! ya_za

Kavasar | 5-07-2015, 21:50 | Статус: Оффлайн

Качество приличное. Можно посмотреть.
Информация
Посетители, находящиеся в группе Гости, не могут оставлять комментарии к данной публикации.